Download 10 Minutes Gone (2019) 720p H264 ita eng Ac3-5 1 sub ita eng-MIRCrew torrent - GloDLS
Torrent Details For "10 Minutes Gone (2019) 720p H264 ita eng Ac3-5 1 sub ita eng-MIRCrew"

10 Minutes Gone (2019) 720p H264 ita eng Ac3-5 1 sub ita eng-MIRCrew

To download this torrent, you need a BitTorrent client: Vuze or BTGuard
Download this torrent
Download using Magnet Link

Health:
Seeds: 4
Leechers: 24
Completed:
Last Checked: 23-05-2020 16:59:37

Uploader Reputation points : 3604
External: Torrent






Write a Review for the Uploader:   5   Say Thanks with one good review:
Share on Facebook


Details
Name:10 Minutes Gone (2019) 720p H264 ita eng Ac3-5 1 sub ita eng-MIRCrew
Description:
10 Minutes Gone (2019).720p.H264.ita.eng.Ac3-5.1.sub.ita.eng-MIRCrew


NO FOUND ONLY ORIGINAL RELEASE

My release is always in double track audio italian and Original audio
for select it use VLC or dvd player home
not use wmp

10 Minutes Gone (2019)

Quality MIRCrew on HD 720p da 1,8 gb









Titolo originale: 10 Minutes Gone
Nazionalità: USA - Canada
Anno: 2019
Genere: azione
Regia: Brian A. Miller
Durata: 89 min



Bruce Willis: Rex
Michael Chiklis: Frank
Meadow Williams: Claire
Kyle Schmid: Griffin
Texas Battle: Richard
Lydia Hull: Ivory



Dopo una rapina in banca finita male, un uomo perde la memoria. Il personaggio dovrà così rimettere insieme i pezzi per farsi tornare alla mente i 10 minuti del colpo per capire chi lo ha tradito.



A crime thriller that centers on a man whose memory has been lost due to a bank heist gone wrong. The character will need to piece together the missing 10 minutes from his memory in order to determine who sabotaged him.

 












General

Complete name                            : 10 Minutes Gone (2019).720p.h264.ita.eng-MIRCrew\10 Minutes Gone (2019).720p.h264.ita.eng-MIRCrew.mkv
Format                                   : Matroska
Format version                           : Version 2
File size                                : 1.78 GiB
Duration                                 : 1h 36mn
Overall bit rate                         : 2 644 Kbps
Movie name                               : MIRCrew
Encoded date                             : UTC 2020-04-25 19:07:48
Writing application                      : mkvmerge v5.8.0 ('No Sleep / Pillow') built on Sep  2 2012 15:37:04
Writing library                          : Lavf54.63.100
COMMENT                                  : MIRCrew

Video
ID                                       : 1
Format                                   : AVC
Format/Info                              : Advanced Video Codec
Format profile                           : [email protected]
Format settings, CABAC                   : Yes
Format settings, ReFrames                : 2 frames
Codec ID                                 : V_MPEG4/ISO/AVC
Duration                                 : 1h 36mn
Bit rate                                 : 1 900 Kbps
Width                                    : 1 280 pixels
Height                                   : 688 pixels
Display aspect ratio                     : 1.853
Frame rate mode                          : Variable
Frame rate                               : 23.976 fps
Color space                              : YUV
Chroma subsampling                       : 4:2:0
Bit depth                                : 8 bits
Scan type                                : Progressive
Bits/(Pixel*Frame)                       : 0.090
Stream size                              : 1.23 GiB (69%)
Title                                    : MIRCrew
Writing library                          : x264 core 130 r2273
Encoding settings                        : cabac=1 / ref=2 / deblock=1:-1:-1 / analyse=0x1:0x131 / me=hex / subme=7 / psy=1 / psy_rd=1.00:0.10 / mixed_ref=0 / me_range=16 / chroma_me=1 / trellis=1 / 8x8dct=0 / cqm=0 / deadzone=21,11 / fast_pskip=1 / chroma_qp_offset=-3 / threads=9 / lookahead_threads=1 / sliced_threads=0 / nr=0 / decimate=1 / interlaced=0 / bluray_compat=0 / constrained_intra=0 / bframes=3 / b_pyramid=0 / b_adapt=1 / b_bias=0 / direct=3 / weightb=1 / open_gop=0 / weightp=2 / keyint=230 / keyint_min=23 / scenecut=40 / intra_refresh=0 / rc_lookahead=40 / rc=abr / mbtree=1 / bitrate=1900 / ratetol=1.0 / qcomp=0.60 / qpmin=10 / qpmax=69 / qpstep=4 / vbv_maxrate=24000 / vbv_bufsize=24000 / nal_hrd=none / ip_ratio=1.40 / aq=1:1.00
Language                                 : Italian
Default                                  : Yes
Forced                                   : No
DURATION                                 : 01:36:13.893000000
NUMBER_OF_FRAMES                         : 138435
NUMBER_OF_BYTES                          : 2100299787
_STATISTICS_WRITING_APP                  : mkvmerge v41.0.0 ('Smarra') 64-bit
_STATISTICS_WRITING_DATE_UTC             : 2020-04-25 19:07:48
_STATISTICS_TAGS                         : BPS DURATION NUMBER_OF_FRAMES NUMBER_OF_BYTES

Audio #1
ID                                       : 2
Format                                   : AC-3
Format/Info                              : Audio Coding 3
Mode extension                           : CM (complete main)
Codec ID                                 : A_AC3
Duration                                 : 1h 36mn
Bit rate mode                            : Constant
Bit rate                                 : 384 Kbps
Channel(s)                               : 6 channels
Channel positions                        : Front: L C R, Side: L R, LFE
Sampling rate                            : 48.0 KHz
Bit depth                                : 16 bits
Compression mode                         : Lossy
Delay relative to video                  : -5ms
Stream size                              : 264 MiB (15%)
Title                                    : Ita Ac3 5.1
Language                                 : Italian
Default                                  : Yes
Forced                                   : No
DURATION                                 : 01:36:13.920000000
NUMBER_OF_FRAMES                         : 180435
NUMBER_OF_BYTES                          : 323339520
_STATISTICS_WRITING_APP                  : mkvmerge v41.0.0 ('Smarra') 64-bit
_STATISTICS_WRITING_DATE_UTC             : 2020-04-25 19:07:48
_STATISTICS_TAGS                         : BPS DURATION NUMBER_OF_FRAMES NUMBER_OF_BYTES

Audio #2
ID                                       : 3
Format                                   : AC-3
Format/Info                              : Audio Coding 3
Mode extension                           : CM (complete main)
Codec ID                                 : A_AC3
Duration                                 : 1h 36mn
Bit rate mode                            : Constant
Bit rate                                 : 384 Kbps
Channel(s)                               : 6 channels
Channel positions                        : Front: L C R, Side: L R, LFE
Sampling rate                            : 48.0 KHz
Bit depth                                : 16 bits
Compression mode                         : Lossy
Delay relative to video                  : -5ms
Stream size                              : 264 MiB (15%)
Title                                    : Eng Ac3 5.1
Language                                 : English
Default                                  : No
Forced                                   : No
DURATION                                 : 01:36:13.920000000
NUMBER_OF_FRAMES                         : 180435
NUMBER_OF_BYTES                          : 277148160
_STATISTICS_WRITING_APP                  : mkvmerge v41.0.0 ('Smarra') 64-bit
_STATISTICS_WRITING_DATE_UTC             : 2020-04-25 19:07:48
_STATISTICS_TAGS                         : BPS DURATION NUMBER_OF_FRAMES NUMBER_OF_BYTES





YouTube Video:
Category:Movies
Language:English  English
Total Size:1.78 GB
Info Hash:8B0159D45D78A3E1118B2A37DB061A65ADEA3D42
Added By:MIRCrewRS Verified Uploader
Date Added:2020-05-23 23:59:35
Torrent Status:Torrent Verified


Ratings:Not Yet Rated (Log in to rate it)


Tracker:
udp://tracker.torrent.eu.org:451/announce

This Torrent also has backup trackers
URLSeedersLeechersCompleted
udp://tracker.torrent.eu.org:451/announce000
udp://tracker.leechers-paradise.org:6969/announce000
udp://tracker.cyberia.is:6969/announce000
udp://tracker.iamhansen.xyz:2000/announce000
udp://p4p.arenabg.com:1337/announce000
udp://explodie.org:6969/announce000
udp://tracker.opentrackr.org:1337/announce000
udp://tracker.tiny-vps.com:6969/announce000
udp://exodus.desync.com:6969/announce000
udp://retracker.akado-ural.ru:80/announce000
udp://tracker.moeking.me:6969/announce000
udp://ipv4.tracker.harry.lu:80/announce000
udp://open.stealth.si:80/announce000
udp://9.rarbg.to:2710/announce000
udp://opentor.org:2710/announce000


File List: 





Comments
No comments still posted