Download 18+ 2050 2019 1080p WEB-DL H264 AC3 torrent - GloDLS
Login
Username:
Password:
Remember Me:
[Signup]
[Recover Account]
Friends
Angie Torrents
Friendly Site

The Music Torrents Database
Friendly site

Watch Movies and TV Online
Friendly site

Pirateiro
Friendly site

Free Courses Online
Friendly site

ETTV
Friendly site

KaranPC
Friendly site

P2PDL.com
Friendly site

OneHack
Friendly site

Torrent Details For "18+ 2050 2019 1080p WEB-DL H264 AC3"

18+ 2050 2019 1080p WEB-DL H264 AC3

To download this torrent, you need a BitTorrent client: Vuze or BTGuard
Download this torrent
Download using Magnet Link

Health:
Seeds: 2
Leechers: 0
Completed: 58 
Last Checked: 29-09-2020 22:57:39

Uploader Reputation points : 6202
External: Torrent






Write a Review for the Uploader:   0   Say Thanks with one good review:
Share on Facebook


Details
Name:18+ 2050 2019 1080p WEB-DL H264 AC3
Description:

Quote:




******************************Thumbnail:**********************




******************************Screenshots:********************

Screenshot 1

Screenshot 2

Screenshot 3

Screenshot 4

Screenshot 5

Screenshot 6

Screenshot 7

Screenshot 8

Screenshot 9

Screenshot 0

**********************************************************

18+.2050.2019.1080p.WEB-DL.H264.AC3.mp4
Format                                   : MPEG-4
Format profile                           : Base Media
Codec ID                                 : isom (isom/iso2/avc1/mp41)
File size                                : 2.53 GiB
Duration                                 : 1 h 46 min
Overall bit rate mode                    : Variable
Overall bit rate                         : 3 400 kb/s
Writing application                      : Lavf57.83.100

Video
ID                                       : 1
Format                                   : AVC
Format/Info                              : Advanced Video Codec
Format profile                           : [email protected]
Format settings                          : CABAC / 1 Ref Frames
Format settings, CABAC                   : Yes
Format settings, Reference frames        : 1 frame
Codec ID                                 : avc1
Codec ID/Info                            : Advanced Video Coding
Duration                                 : 1 h 46 min
Bit rate mode                            : Variable
Bit rate                                 : 3 013 kb/s
Maximum bit rate                         : 9 000 kb/s
Width                                    : 1 920 pixels
Height                                   : 810 pixels
Display aspect ratio                     : 2.40:1
Frame rate mode                          : Constant
Frame rate                               : 23.976 (23976/1000) FPS
Color space                              : YUV
Chroma subsampling                       : 4:2:0
Bit depth                                : 8 bits
Scan type                                : Progressive
Bits/(Pixel*Frame)                       : 0.081
Stream size                              : 2.24 GiB (89%)
Language                                 : English
Menus                                    : 3
Codec configuration box                  : avcC

Audio
ID                                       : 2
Format                                   : AC-3
Format/Info                              : Audio Coding 3
Commercial name                          : Dolby Digital
Codec ID                                 : ac-3
Duration                                 : 1 h 46 min
Bit rate mode                            : Constant
Bit rate                                 : 384 kb/s
Channel(s)                               : 6 channels
Channel layout                           : L R C LFE Ls Rs
Sampling rate                            : 48.0 kHz
Frame rate                               : 31.250 FPS (1536 SPF)
Compression mode                         : Lossy
Stream size                              : 293 MiB (11%)
Language                                 : English
Service kind                             : Complete Main



**********************************************************



YouTube Video:
Category:Movies
Language:English  English
Total Size:2.55 GB
Info Hash:AEFE0A533283B9AAAF0D4167AE738225FB286E0D
Added By:LifeLongg Verified Uploader
Date Added:2020-01-15 09:04:29
Torrent Status:Torrent Verified


Ratings:Not Yet Rated (Log in to rate it)


Tracker:
udp://tracker.openbittorrent.com:80/announce

This Torrent also has backup trackers
URLSeedersLeechersCompleted
udp://tracker.openbittorrent.com:80/announce1029
udp://tracker.opentrackr.org:1337/announce000
UDP://TRACKER.LEECHERS-PARADISE.ORG:6969/ANNOUNCE000
UDP://TRACKER.COPPERSURFER.TK:6969/ANNOUNCE000
UDP://TRACKER.OPENTRACKR.ORG:1337/ANNOUNCE000
UDP://TRACKER.ZER0DAY.TO:1337/ANNOUNCE000
UDP://EDDIE4.NL:6969/ANNOUNCE000


File List: 





Comments
No comments still posted