Download 18+ Gone Girl 2014 720p BluRay x264 LLG torrent - GloDLS
Torrent Details For "18+ Gone Girl 2014 720p BluRay x264 LLG"

18+ Gone Girl 2014 720p BluRay x264 LLG

To download this torrent, you need a BitTorrent client: Vuze or BTGuard
Download this torrent
Download using Magnet Link

Health:
Seeds: 0
Leechers: 0
Completed:
Last Checked: 15-09-2020 15:31:26

Uploader Reputation points : 6116
External: Torrent






Write a Review for the Uploader:   0   Say Thanks with one good review:
Share on Facebook


Details
Name:18+ Gone Girl 2014 720p BluRay x264 LLG
Description:

Quote:



******************************Thumbnbil:**********************




******************************Screenshots:********************

screenshot 1

screenshot 2

screenshot 3

screenshot 4

screenshot 5

screenshot 6

screenshot 7

screenshot 8

screenshot 9

screenshot 0


******************************************************

18+.Gone.Girl.2014.720p.BluRay.x264.LLG.mp4
Format                                   : MPEG-4
Format profile                           : Base Media
Codec ID                                 : isom (isom/iso2/avc1/mp41)
File size                                : 1.03 GiB
Duration                                 : 2 h 29 min
Overall bit rate mode                    : Variable
Overall bit rate                         : 985 kb/s
Writing application                      : Lavf57.83.100

Video
ID                                       : 1
Format                                   : AVC
Format/Info                              : Advanced Video Codec
Format profile                           : [email protected]
Format settings                          : CABAC / 1 Ref Frames
Format settings, CABAC                   : Yes
Format settings, Reference frames        : 1 frame
Codec ID                                 : avc1
Codec ID/Info                            : Advanced Video Coding
Duration                                 : 2 h 29 min
Bit rate mode                            : Variable
Bit rate                                 : 885 kb/s
Maximum bit rate                         : 2 700 kb/s
Width                                    : 1 280 pixels
Height                                   : 532 pixels
Display aspect ratio                     : 2.40:1
Frame rate mode                          : Constant
Frame rate                               : 23.976 (23976/1000) FPS
Color space                              : YUV
Chroma subsampling                       : 4:2:0
Bit depth                                : 8 bits
Scan type                                : Progressive
Bits/(Pixel*Frame)                       : 0.054
Stream size                              : 943 MiB (90%)
Codec configuration box                  : avcC

Audio
ID                                       : 2
Format                                   : AAC LC
Codec ID                                 : mp4a-40-2
Duration                                 : 2 h 29 min
Bit rate mode                            : Constant
Bit rate                                 : 96.0 kb/s
Channel(s)                               : 2 channels
Channel layout                           : L R
Sampling rate                            : 48.0 kHz
Frame rate                               : 46.875 FPS (1024 SPF)
Compression mode                         : Lossy
Stream size                              : 103 MiB (10%)
Language                                 : English
Default                                  : Yes
Alternate group                          : 1




********************************************************


YouTube Video:
Category:Movies
Language:English  English
Total Size:1.03 GB
Info Hash:DA2966D014FE1F5FF9A51008DCF995275AC59F62
Added By:LifeLongg Verified Uploader
Date Added:2020-09-15 22:31:25
Torrent Status:Torrent Verified


Ratings:Not Yet Rated (Log in to rate it)


Tracker:
udp://tracker.openbittorrent.com:80/announce

This Torrent also has backup trackers
URLSeedersLeechersCompleted
udp://tracker.openbittorrent.com:80/announce000
udp://tracker.opentrackr.org:1337/announce000
UDP://TRACKER.LEECHERS-PARADISE.ORG:6969/ANNOUNCE000
UDP://TRACKER.COPPERSURFER.TK:6969/ANNOUNCE000
UDP://TRACKER.OPENTRACKR.ORG:1337/ANNOUNCE000
UDP://TRACKER.ZER0DAY.TO:1337/ANNOUNCE000
UDP://EDDIE4.NL:6969/ANNOUNCE000


File List: 





Comments
No comments still posted