Download Blue Öyster Cult - Curse of the Hidden Mirror (2020) [Hi-Res stereo] torrent - GloDLS
Torrent Details For "Blue Öyster Cult - Curse of the Hidden Mirror (2020) [Hi-Res stereo]"

Blue Öyster Cult - Curse of the Hidden Mirror (2020) [Hi-Res stereo]

To download this torrent, you need a BitTorrent client: Vuze or BTGuard
Download this torrent
Download using Magnet Link

Health:
Seeds: 41
Leechers: 0
Completed: 846 
Last Checked: 01-06-2020 21:19:55

Uploader Reputation points : 1172
External: Torrent






Write a Review for the Uploader:   5   Say Thanks with one good review:
Share on Facebook


Details
Name:Blue Öyster Cult - Curse of the Hidden Mirror (2020) [Hi-Res stereo]
Description:


Quality-Lossless
Release-2020
Duration-00:50:51
File Size-671 MB
Genre-Rock
Cover Size-1400px

----------------------------------------------------------------------------------------------
Analyzed: Curse of the Hidden Mirror /  Artist: Blue Öyster Cult
----------------------------------------------------------------------------------------------
DR Peak RMS Duration Title [codec]
----------------------------------------------------------------------------------------------
DR8 -0.28 dB -9.70 dB 6:04 01 - Dance on Stilts [flac]
DR9 -0.56 dB -10.92 dB 4:37 02 - Showtime [flac]
DR8 -0.40 dB -10.04 dB 4:34 03 - The Old Gods Return [flac]
DR9 -0.46 dB -9.99 dB 4:16 04 - Pocket [flac]
DR8 -0.72 dB -9.50 dB 4:15 05 - One Step Ahead of the Evil [flac]
DR8 -0.37 dB -9.83 dB 3:54 06 - I Just Like to Be Bad [flac]
DR8 -0.68 dB -10.13 dB 3:20 07 - Here Comes That Feeling [flac]
DR8 -0.26 dB -9.56 dB 5:05 08 - Out of the Darkness [flac]
DR8 -0.59 dB -9.84 dB 5:49 09 - Stone of Love [flac]
DR8 -0.64 dB -9.40 dB 4:40 10 - Eye of the Hurricane [flac]
DR8 -0.53 dB -9.92 dB 4:11 11 - Good to Feel Hungry [flac]
----------------------------------------------------------------------------------------------
Number of files:    11
Official DR value:  DR8

Sampling rate: 44100 Hz
Average bitrate: 1757kbs
Bits per sample: 24 bit
YouTube Video:
Category:FLAC
Language:Aucune/N/D
Total Size:640.60 MB
Info Hash:EB9B493E0417239F40E6EEFAF203075D892D1346
Added By:was95was Verified UploaderMusic Lover
Date Added:2020-05-23 21:56:47
Torrent Status:Torrent Verified


Ratings:Not Yet Rated (Log in to rate it)


Tracker:
udp://tracker.piratepublic.com:1337/announce

This Torrent also has backup trackers
URLSeedersLeechersCompleted
udp://tracker.piratepublic.com:1337/announce000
udp://tracker.pirateparty.gr:6969/announce000
udp://tracker.coppersurfer.tk:6969/announce10012
udp://tracker.leechers-paradise.org:6969/announce000
udp://9.rarbg.com:2710/announce506
http://p4p.arenabg.com:1337/announce000
http://explodie.org:6969/announce500
udp://tracker.opentrackr.org:1337/announce90344
udp://exodus.desync.com:6969/announce60242
udp://tracker.leechers-paradise.org:6969/announce000
udp://tracker.zer0day.to:1337/announce000
udp://open.demonii.si:1337/announce000
udp://exodus.desync.com:6969/announce60242
udp://tracker.iamhansen.xyz:2000/announce000


File List: 





Comments
No comments still posted