Download Dark (2020) English S03 Complete 720p NF WEB-DL - 2 GB - DD- 5 1 MSub x264 - Shadow (BonsaiHD) torrent - GloDLS
Torrent Details For "Dark (2020) English S03 Complete 720p NF WEB-DL - 2 GB - DD- 5 1 MSub x264 - Shadow (..."

Dark (2020) English S03 Complete 720p NF WEB-DL - 2 GB - DD- 5 1 MSub x264 - Shadow (...

To download this torrent, you need a BitTorrent client: Vuze or BTGuard
Download this torrent
Download using Magnet Link

Health:
Seeds: 6,106
Leechers: 2,451
Completed: 39,998 
Last Checked: 01-07-2020 07:54:03

Uploader Reputation points : 792
External: Torrent






Write a Review for the Uploader:   5   Say Thanks with one good review:
Share on Facebook


Details
Name:Dark (2020) English S03 Complete 720p NF WEB-DL - 2 GB - DD- 5 1 MSub x264 - Shadow (...
Description:
If You Need Best Quality in Low Size. Then This Is For You

Please Don't Stop Your Tourrent after download Complete. For seeding


Movie name :

Dark (2020) English S03 Complete 720p NF WEB-DL ⭐2.4 GB⭐ DD- 5.1 ESub x264 - Shadow (BonsaiHD)


Quote:

*PiRATES_NEVER_DiE!*

*We Just go ON and On and On...FOREVER!*

We Team @Shadow Requests all our lovely fans kindly be home and enjoy our releases.Be safe and enjoy


कोरोना से बचाव:
घर पर फिल्में देखें। घर में रहें, सुरक्षित रहें। सरकार द्वारा दिए गए सभी दिशानिर्देशों और सावधानियों का जरूर पालन करें।


Fight Corona:
Watch movies at home. Stay Home, Stay Safe. Must Follow All the guidelines and precautions advised by the Government.

Thank you


Quote:

Storyline : A family saga with a supernatural twist, set in a German town, where the disappearance of two young children exposes the relationships among four families.

Release date : 27 June 2020 (India)

File size :  4 GB

Encoded by :- ⭐BonsaiHD⭐

Source :-⭐BonsaiHD⭐










General
Unique ID                                : 135501595626088682490988140347545134562 (0x65F0A87626DCB121A51A437E0750A5E2)
Complete name                            : Dark (2020) English S03 Complete 720p NF WEB-DL - 2.4 GB - DD- 5.1 MSub x264 - Shadow (BonsaiHD)
Format                                   : Matroska
Format version                           : Version 4
File size                                : 294 MiB
Duration                                 : 1 h 2 min
Overall bit rate mode                    : Variable
Overall bit rate                         : 662 kb/s
Encoded date                             : UTC 2020-06-27 08:04:52
Writing application                      : mkvmerge v31.0.0 ('Dolores In A Shoestand') 64-bit
Writing library                          : libebml v1.3.6 + libmatroska v1.4.9

Video
ID                                       : 1
Format                                   : AVC
Format/Info                              : Advanced Video Codec
Format profile                           : [email protected]
Format settings                          : CABAC / 4 Ref Frames
Format settings, CABAC                   : Yes
Format settings, Reference frames        : 4 frames
Codec ID                                 : V_MPEG4/ISO/AVC
Duration                                 : 1 h 2 min
Bit rate mode                            : Variable
Bit rate                                 : 501 kb/s
Maximum bit rate                         : 14.0 Mb/s
Width                                    : 1 280 pixels
Height                                   : 720 pixels
Display aspect ratio                     : 16:9
Frame rate mode                          : Constant
Frame rate                               : 24.000 FPS
Color space                              : YUV
Chroma subsampling                       : 4:2:0
Bit depth                                : 8 bits
Scan type                                : Progressive
Bits/(Pixel*Frame)                       : 0.023
Stream size                              : 222 MiB (76%)
Writing library                          : x264 core 148 r2717 0d2410d
Encoding settings                        : cabac=1 / ref=4 / deblock=1:0:0 / analyse=0x3:0x111 / me=umh / subme=10 / psy=1 / psy_rd=1.00:0.00 / mixed_ref=1 / me_range=120 / chroma_me=1 / trellis=2 / 8x8dct=1 / cqm=0 / deadzone=21,11 / fast_pskip=1 / chroma_qp_offset=-2 / threads=8 / lookahead_threads=2 / sliced_threads=0 / nr=0 / decimate=1 / interlaced=0 / bluray_compat=0 / stitchable=1 / constrained_intra=0 / bframes=16 / b_pyramid=2 / b_adapt=2 / b_bias=0 / direct=3 / weightb=1 / open_gop=0 / weightp=2 / keyint=240 / keyint_min=121 / scenecut=0 / intra_refresh=0 / rc_lookahead=240 / rc=crf / mbtree=1 / crf=21.0 / qcomp=0.50 / qpmin=6 / qpmax=51 / qpstep=4 / vbv_maxrate=14000 / vbv_bufsize=14000 / crf_max=0.0 / nal_hrd=vbr / filler=0 / ip_ratio=1.40 / aq=1:0.80
Default                                  : Yes
Forced                                   : No

Audio
ID                                       : 5
Format                                   : AC-3
Format/Info                              : Audio Coding 3
Commercial name                          : Dolby Digital
Codec ID                                 : A_AC3
Duration                                 : 1 h 2 min
Bit rate mode                            : Constant
Bit rate                                 : 160 kb/s
Channel(s)                               : 6 channels
Channel layout                           : L R C LFE Ls Rs
Sampling rate                            : 48.0 kHz
Frame rate                               : 31.250 FPS (1536 SPF)
Compression mode                         : Lossy
Stream size                              : 71.1 MiB (24%)
Language                                 : English
Service kind                             : Complete Main
Default                                  : Yes
Forced                                   : No

Text #1
ID                                       : 2
Format                                   : UTF-8
Codec ID                                 : S_TEXT/UTF8
Codec ID/Info                            : UTF-8 Plain Text
Duration                                 : 1 h 1 min
Bit rate                                 : 25 b/s
Count of elements                        : 449
Stream size                              : 11.5 KiB (0%)
Title                                    : [email protected]
Language                                 : English
Default                                  : No
Forced                                   : No

Text #2
ID                                       : 3
Format                                   : UTF-8
Codec ID                                 : S_TEXT/UTF8
Codec ID/Info                            : UTF-8 Plain Text
Duration                                 : 57 min 12 s
Bit rate                                 : 1 b/s
Count of elements                        : 21
Stream size                              : 448 Bytes (0%)
Title                                    : [email protected]@BonsaiHD.Fun
Language                                 : English
Default                                  : Yes
Forced                                   : Yes

Text #3
ID                                       : 4
Format                                   : UTF-8
Codec ID                                 : S_TEXT/UTF8
Codec ID/Info                            : UTF-8 Plain Text
Duration                                 : 57 min 14 s
Bit rate                                 : 36 b/s
Count of elements                        : 594
Stream size                              : 15.4 KiB (0%)
Title                                    : [email protected]
Language                                 : English
Default                                  : No
Forced                                   : No

YouTube Video:
Category:TV
Language:English  English
Total Size:2.37 GB
Info Hash:36D1995501E450393EBBE2BC99704BE557AF031B
Added By:trueHD Verified Uploader
Date Added:2020-06-27 16:21:29
Torrent Status:Torrent Verified


Ratings:Not Yet Rated (Log in to rate it)


Tracker:
udp://tracker.coppersurfer.tk:6969/announce

This Torrent also has backup trackers
URLSeedersLeechersCompleted
udp://tracker.coppersurfer.tk:6969/announce6063001,220
udp://tracker.leechers-paradise.org:6969/announce5632436,687
udp://tracker.cyberia.is:6969/announce4271544,497
udp://tracker.iamhansen.xyz:2000/announce000
udp://p4p.arenabg.com:1337/announce4241463,969
udp://explodie.org:6969/announce134740
udp://tracker.opentrackr.org:1337/announce4802344,357
udp://tracker.tiny-vps.com:6969/announce5421774,349
udp://exodus.desync.com:6969/announce3571352,845
udp://tracker.torrent.eu.org:451/announce5161644,058
udp://tracker.moeking.me:6969/announce4211512,036
udp://ipv4.tracker.harry.lu:80/announce150850
http://tracker.nyap2p.com:8080/announce1,4545615,359
udp://9.rarbg.to:2710/announce000
udp://opentor.org:2710/announce3227621


File List: 





Comments

[Report] Posted: 27-06-2020 at 14:22:34
Portos

avatar

profile message
Thxxxxxxx