Download Florian Christl - Episodes (2020) [24bit Hi-Res] torrent - GloDLS
Torrent Details For "Florian Christl - Episodes (2020) [24bit Hi-Res]"

Florian Christl - Episodes (2020) [24bit Hi-Res]

To download this torrent, you need a BitTorrent client: Vuze or BTGuard
Download this torrent
Download using Magnet Link

Health:
Seeds: 7
Leechers: 0
Completed: 336 
Last Checked: 02-06-2020 03:14:50

Uploader Reputation points : 1172
External: Torrent






Write a Review for the Uploader:   5   Say Thanks with one good review:
Share on Facebook


Details
Name:Florian Christl - Episodes (2020) [24bit Hi-Res]
Description:


Quality-Lossless
Release-2020
Duration-00:47:35
File Size-482 MB
Genre-Classical
Cover Size-1400px

----------------------------------------------------------------------------------------------
Analyzed: Episodes /  Artist: Various Artists
----------------------------------------------------------------------------------------------
DR Peak RMS Duration Title [codec]
----------------------------------------------------------------------------------------------
DR9 -1.00 dB -13.25 dB 2:39 01 - Melodie [flac]
DR11 -6.67 dB -29.88 dB 1:14 02 - Regen Intro [flac]
DR8 -1.00 dB -13.67 dB 3:12 03 - Regen [flac]
DR9 -1.00 dB -15.29 dB 1:26 04 - Melancholie [flac]
DR9 -1.00 dB -14.08 dB 2:53 05 - Lights [flac]
DR7 -1.00 dB -10.91 dB 2:43 06 - Leidenschaft [flac]
DR9 -1.00 dB -16.57 dB 5:37 07 - Tag am See [flac]
DR7 -1.01 dB -12.16 dB 2:20 08 - Dreaming [flac]
DR9 -1.00 dB -13.02 dB 2:37 09 - Irrweg [flac]
DR7 -1.00 dB -10.58 dB 2:08 10 - Encore [flac]
DR9 -1.00 dB -15.71 dB 3:02 11 - Spring - Frühlingserwachen [flac]
DR6 -1.00 dB -11.47 dB 2:46 12 - Ungewiss [flac]
DR11 -1.00 dB -17.50 dB 1:52 13 - Vivaldi Variation (Arr. for Piano from Concerto for Strings in G Minor, RV 156) [flac]
DR9 -1.00 dB -13.37 dB 4:40 14 - Remember [flac]
DR9 -1.00 dB -13.80 dB 2:39 15 - Tempesta for 2 Pianos inspired by Coriolan, Op. 62 by Beethoven [flac]
DR14 -1.02 dB -22.38 dB 2:37 16 - Melodie  (Solo Piano Version) [flac]
DR9 -1.00 dB -14.35 dB 1:35 17 - Ungewiss  (Solo Piano Version) [flac]
DR10 -1.00 dB -14.63 dB 1:24 18 - Leidenschaft  (Solo Piano Version) [flac]
----------------------------------------------------------------------------------------------
Number of files:    18
Official DR value:  DR9

Sampling rate: 48000 Hz
Average bitrate: 1339kbs
Bits per sample: 24 bit
YouTube Video:
Category:FLAC
Language:Aucune/N/D
Total Size:459.88 MB
Info Hash:9219269372F1285E8614394E16D1F56224F15DCD
Added By:was95was Verified UploaderMusic Lover
Date Added:2020-05-23 22:01:04
Torrent Status:Torrent Verified


Ratings:Not Yet Rated (Log in to rate it)


Tracker:
udp://tracker.piratepublic.com:1337/announce

This Torrent also has backup trackers
URLSeedersLeechersCompleted
udp://tracker.piratepublic.com:1337/announce000
udp://tracker.pirateparty.gr:6969/announce000
udp://tracker.coppersurfer.tk:6969/announce108
udp://tracker.leechers-paradise.org:6969/announce1077
udp://9.rarbg.com:2710/announce000
http://p4p.arenabg.com:1337/announce000
http://explodie.org:6969/announce100
udp://tracker.opentrackr.org:1337/announce1062
udp://exodus.desync.com:6969/announce1056
udp://tracker.leechers-paradise.org:6969/announce1077
udp://tracker.zer0day.to:1337/announce000
udp://open.demonii.si:1337/announce000
udp://exodus.desync.com:6969/announce1056
udp://tracker.iamhansen.xyz:2000/announce000


File List: 





Comments
No comments still posted