Download Kill Zone Paradox-Seat po long (2018) ITA-THA Ac3 5 1 BDRip 1080p H264 [ArMor] torrent - GloDLS
Torrent Details For "Kill Zone Paradox-Seat po long (2018) ITA-THA Ac3 5 1 BDRip 1080p H264 [ArMor]"

Kill Zone Paradox-Seat po long (2018) ITA-THA Ac3 5 1 BDRip 1080p H264 [ArMor]

To download this torrent, you need a BitTorrent client: Vuze or BTGuard
Download this torrent
Download using Magnet Link

Health:
Seeds: 5
Leechers: 0
Completed:
Last Checked: 01-08-2020 19:35:38

Uploader Reputation points : 338
External: Torrent






Write a Review for the Uploader:   0   Say Thanks with one good review:
Share on Facebook


Details
Name:Kill Zone Paradox-Seat po long (2018) ITA-THA Ac3 5 1 BDRip 1080p H264 [ArMor]
Description:




Directed by Wilson Yip
Produced by Cheang Pou-soi, Paco Wong, Ren Yue, Stanley Tong, Yang Guang
Distributed by Bravos Pictures
Release date 15 August 2017 (HKIFF Cine Fan) 17 August 2017 (China) 25 August 2017 (Hong Kong)
Running time 98 minutes
Country Hong Kong China
Language Cantonese, English, Thai

Plot: Un poliziotto di Hong Kong di 16 anni la figlia scompare a Pattaya. Va in Thailandia per trovarla e deve occuparsi di poliziotti corrotti ma uno onesto lo aiuta a rintracciare i colpevoli coinvolti nel traffico illegale di organi.

A tough Hong Kong cop's 16 y.o. daughter disappears in Pattaya. He goes to Thailand to find her and must deal with corrupt cops but an honest one helps him track down culprits involved in illegal organ trafficking.










General
Unique ID                                : 85235586999854329621753601927886268483 (0x401FC6E5158063042887E52704E9E843)
Complete name                            : Kill Zone Paradox-Seat po long (2018) ITA-ENG Ac3 5.1 BDRip 1080p H264 [ArMor].mkv
Format                                   : Matroska
Format version                           : Version 4
File size                                : 3.25 GiB
Duration                                 : 1 h 35 min
Overall bit rate                         : 4 859 kb/s
Encoded date                             : UTC 2020-07-31 21:32:01
Writing application                      : HandBrake 1.3.3 2020061300
Writing library                          : Lavf58.29.100
ErrorDetectionType                       : Per level 1

Video
ID                                       : 1
Format                                   : AVC
Format/Info                              : Advanced Video Codec
Format profile                           : [email protected]
Format settings                          : CABAC / 4 Ref Frames
Format settings, CABAC                   : Yes
Format settings, Reference frames        : 4 frames
Codec ID                                 : V_MPEG4/ISO/AVC
Duration                                 : 1 h 35 min
Bit rate                                 : 4 000 kb/s
Width                                    : 1 920 pixels
Height                                   : 816 pixels
Display aspect ratio                     : 2.35:1
Frame rate mode                          : Constant
Frame rate                               : 25.000 FPS
Color space                              : YUV
Chroma subsampling                       : 4:2:0
Bit depth                                : 8 bits
Scan type                                : Progressive
Bits/(Pixel*Frame)                       : 0.102
Stream size                              : 2.58 GiB (80%)
Writing library                          : x264 core 157 r2935 545de2f
Encoding settings                        : cabac=1 / ref=2 / deblock=1:0:0 / analyse=0x1:0x111 / me=hex / subme=6 / psy=1 / psy_rd=1.00:0.00 / mixed_ref=1 / me_range=16 / chroma_me=1 / trellis=1 / 8x8dct=0 / cqm=0 / deadzone=21,11 / fast_pskip=1 / chroma_qp_offset=-2 / threads=18 / lookahead_threads=3 / sliced_threads=0 / nr=0 / decimate=1 / interlaced=0 / bluray_compat=0 / constrained_intra=0 / bframes=3 / b_pyramid=2 / b_adapt=1 / b_bias=0 / direct=1 / weightb=1 / open_gop=0 / weightp=1 / keyint=250 / keyint_min=25 / scenecut=40 / intra_refresh=0 / rc_lookahead=30 / rc=abr / mbtree=1 / bitrate=4000 / ratetol=1.0 / qcomp=0.60 / qpmin=0 / qpmax=69 / qpstep=4 / vbv_maxrate=50000 / vbv_bufsize=62500 / nal_hrd=none / filler=0 / ip_ratio=1.40 / aq=1:1.00
Default                                  : Yes
Forced                                   : No
Color range                              : Limited
Color primaries                          : BT.709
Transfer characteristics                 : BT.709
Matrix coefficients                      : BT.709

Audio #1
ID                                       : 2
Format                                   : AC-3
Format/Info                              : Audio Coding 3
Commercial name                          : Dolby Digital
Codec ID                                 : A_AC3
Duration                                 : 1 h 35 min
Bit rate mode                            : Constant
Bit rate                                 : 448 kb/s
Channel(s)                               : 6 channels
Channel layout                           : L R C LFE Ls Rs
Sampling rate                            : 48.0 kHz
Frame rate                               : 31.250 FPS (1536 SPF)
Compression mode                         : Lossy
Stream size                              : 306 MiB (9%)
Title                                    : Surround
Language                                 : Italian
Service kind                             : Complete Main
Default                                  : Yes
Forced                                   : No

Audio #2
ID                                       : 3
Format                                   : AC-3
Format/Info                              : Audio Coding 3
Commercial name                          : Dolby Digital
Codec ID                                 : A_AC3
Duration                                 : 1 h 35 min
Bit rate mode                            : Constant
Bit rate                                 : 448 kb/s
Channel(s)                               : 6 channels
Channel layout                           : L R C LFE Ls Rs
Sampling rate                            : 48.0 kHz
Frame rate                               : 31.250 FPS (1536 SPF)
Compression mode                         : Lossy
Stream size                              : 306 MiB (9%)
Title                                    : Surround
Language                                 : Thai
Service kind                             : Complete Main
Default                                  : No
Forced                                   : No

Menu
00:00:00.000                             : :Chapter 1
00:07:34.840                             : :Chapter 2
00:14:17.440                             : :Chapter 3
00:20:25.240                             : :Chapter 4
00:30:21.560                             : :Chapter 5
00:36:47.280                             : :Chapter 6
00:41:19.320                             : :Chapter 7
00:52:28.200                             : :Chapter 8
01:00:27.480                             : :Chapter 9
01:07:47.520                             : :Chapter 10
01:16:17.160                             : :Chapter 11
01:26:59.520                             : :Chapter 12


YouTube Video:
Category:Movies
Language:Italian  Italian
Total Size:3.25 GB
Info Hash:56D230135C1B91F2B5027F5DD779C25DA53FF664
Added By:ArMor1 Uploader
Date Added:2020-08-02 02:24:17
Torrent Status:Torrent Verified by Prom3th3uS Super Administrator on 1st August, 2020


Ratings:Not Yet Rated (Log in to rate it)


Tracker:
udp://tracker.coppersurfer.tk:6969/announce

This Torrent also has backup trackers
URLSeedersLeechersCompleted
udp://tracker.coppersurfer.tk:6969/announce000
udp://tracker.opentrackr.org:1337/announce200
udp://tracker.leechers-paradise.org:6969/announce000
udp://tracker.zer0day.to:1337/announce000
udp://eddie4.nl:6969/announce000
udp://9.rarbg.me:2790/announce100
udp://9.rarbg.to:2730/announce100
udp://9.rarbg.com:2710/announce000
udp://tracker.pirateparty.gr:6969/announce000
udp://p4p.arenabg.com:1337/announce100
http://ipv4.tracker.harry.lu/announce000
http://ipv4.tracker.harry.lu:80/announce000
http://t.nyaatracker.com/announce000
http://t.nyaatracker.com:80/announce000
http://tracker.torrentyorg.pl:80/announce000


File List: 





Comments
No comments still posted