Download La campionessa-Ride like a girl (2019) ITA-ENG Ac3 5 1 BDRip 1080p H264 [ArMor] torrent - GloDLS
Torrent Details For "La campionessa-Ride like a girl (2019) ITA-ENG Ac3 5 1 BDRip 1080p H264 [ArMor]"

La campionessa-Ride like a girl (2019) ITA-ENG Ac3 5 1 BDRip 1080p H264 [ArMor]

To download this torrent, you need a BitTorrent client: Vuze or BTGuard
Download this torrent
Download using Magnet Link

Health:
Seeds: 7
Leechers: 0
Completed:
Last Checked: 01-08-2020 23:41:05

Uploader Reputation points : 338
External: Torrent






Write a Review for the Uploader:   0   Say Thanks with one good review:
Share on Facebook


Details
Name:La campionessa-Ride like a girl (2019) ITA-ENG Ac3 5 1 BDRip 1080p H264 [ArMor]
Description:




Titolo originale Ride Like a Girl
Data di uscita nd (Italia)
Genere Drammatico
Anno 2019
Regia Rachel Griffiths
Attori Teresa Palmer, Sam Neill, Sullivan Stapleton, Sophia Forrest, Henry Nixon, Aaron Glenane, Genevieve Morris, Zara Zoe, Charles Russell, Justine Jones
Paese Australia

Plot: La storia di Michelle Payne, la prima fantino femminile a vincere la Melbourne Cup.

The story of Michelle Payne, the first female jockey to win the Melbourne Cup.










General
Unique ID                                : 201540060632019331579424190580378165059 (0x979F342AB21016AF919D69CEFF8DDF43)
Complete name                            : La campionessa-Ride like a girl (2019) ITA-ENG Ac3 5.1 BDRip 1080p H264 [ArMor].mkv
Format                                   : Matroska
Format version                           : Version 4
File size                                : 3.25 GiB
Duration                                 : 1 h 38 min
Overall bit rate                         : 4 741 kb/s
Encoded date                             : UTC 2020-08-01 20:54:36
Writing application                      : mkvmerge v15.0.0 ('Duel with the Devil') 64-bit
Writing library                          : libebml v1.3.5 + libmatroska v1.4.5 / Lavf58.29.100

Video
ID                                       : 1
Format                                   : AVC
Format/Info                              : Advanced Video Codec
Format profile                           : [email protected]
Format settings                          : CABAC / 4 Ref Frames
Format settings, CABAC                   : Yes
Format settings, Reference frames        : 4 frames
Codec ID                                 : V_MPEG4/ISO/AVC
Duration                                 : 1 h 38 min
Bit rate                                 : 4 000 kb/s
Width                                    : 1 920 pixels
Height                                   : 1 036 pixels
Display aspect ratio                     : 1.85:1
Frame rate mode                          : Constant
Frame rate                               : 24.000 FPS
Color space                              : YUV
Chroma subsampling                       : 4:2:0
Bit depth                                : 8 bits
Scan type                                : Progressive
Bits/(Pixel*Frame)                       : 0.084
Stream size                              : 2.63 GiB (81%)
Writing library                          : x264 core 157 r2935 545de2f
Encoding settings                        : cabac=1 / ref=2 / deblock=1:0:0 / analyse=0x1:0x111 / me=hex / subme=6 / psy=1 / psy_rd=1.00:0.00 / mixed_ref=1 / me_range=16 / chroma_me=1 / trellis=1 / 8x8dct=0 / cqm=0 / deadzone=21,11 / fast_pskip=1 / chroma_qp_offset=-2 / threads=18 / lookahead_threads=3 / sliced_threads=0 / nr=0 / decimate=1 / interlaced=0 / bluray_compat=0 / constrained_intra=0 / bframes=3 / b_pyramid=2 / b_adapt=1 / b_bias=0 / direct=1 / weightb=1 / open_gop=0 / weightp=1 / keyint=240 / keyint_min=24 / scenecut=40 / intra_refresh=0 / rc_lookahead=30 / rc=abr / mbtree=1 / bitrate=4000 / ratetol=1.0 / qcomp=0.60 / qpmin=0 / qpmax=69 / qpstep=4 / vbv_maxrate=50000 / vbv_bufsize=62500 / nal_hrd=none / filler=0 / ip_ratio=1.40 / aq=1:1.00
Default                                  : Yes
Forced                                   : No
Color range                              : Limited
Color primaries                          : BT.709
Transfer characteristics                 : BT.709
Matrix coefficients                      : BT.709

Audio #1
ID                                       : 2
Format                                   : AC-3
Format/Info                              : Audio Coding 3
Commercial name                          : Dolby Digital
Codec ID                                 : A_AC3
Duration                                 : 1 h 38 min
Bit rate mode                            : Constant
Bit rate                                 : 448 kb/s
Channel(s)                               : 6 channels
Channel layout                           : L R C LFE Ls Rs
Sampling rate                            : 48.0 kHz
Frame rate                               : 31.250 FPS (1536 SPF)
Compression mode                         : Lossy
Stream size                              : 314 MiB (9%)
Title                                    : WEBDL
Language                                 : Italian
Service kind                             : Complete Main
Default                                  : Yes
Forced                                   : No

Audio #2
ID                                       : 3
Format                                   : AC-3
Format/Info                              : Audio Coding 3
Commercial name                          : Dolby Digital
Codec ID                                 : A_AC3
Duration                                 : 1 h 38 min
Bit rate mode                            : Constant
Bit rate                                 : 448 kb/s
Channel(s)                               : 6 channels
Channel layout                           : L R C LFE Ls Rs
Sampling rate                            : 48.0 kHz
Frame rate                               : 31.250 FPS (1536 SPF)
Compression mode                         : Lossy
Stream size                              : 314 MiB (9%)
Title                                    : DTS
Language                                 : English
Service kind                             : Complete Main
Default                                  : No
Forced                                   : No


YouTube Video:
Category:Movies
Language:English  English
Total Size:3.25 GB
Info Hash:2CC9170B1CF80361BD1A23265F4D04A98E1F3A18
Added By:ArMor1 Uploader
Date Added:2020-08-02 06:35:16
Torrent Status:Torrent Verified by Prom3th3uS Super Administrator on 2nd August, 2020


Ratings:Not Yet Rated (Log in to rate it)


Tracker:
udp://tracker.coppersurfer.tk:6969/announce

This Torrent also has backup trackers
URLSeedersLeechersCompleted
udp://tracker.coppersurfer.tk:6969/announce000
udp://tracker.opentrackr.org:1337/announce200
udp://tracker.leechers-paradise.org:6969/announce100
udp://tracker.zer0day.to:1337/announce000
udp://eddie4.nl:6969/announce000
udp://9.rarbg.me:2790/announce100
udp://9.rarbg.to:2730/announce100
udp://9.rarbg.com:2710/announce100
udp://tracker.pirateparty.gr:6969/announce000
udp://p4p.arenabg.com:1337/announce100
http://ipv4.tracker.harry.lu/announce000
http://ipv4.tracker.harry.lu:80/announce000
http://t.nyaatracker.com/announce000
http://t.nyaatracker.com:80/announce000
http://tracker.torrentyorg.pl:80/announce000


File List: 





Comments
No comments still posted