Download Lootcase (2020) Hindi 720p HS WEBRip⭐1 GB⭐ AAC 5 1 ESub x264 - Shadow (BonsaiHD) torrent - GloDLS
Torrent Details For "Lootcase (2020) Hindi 720p HS WEBRip⭐1 GB⭐ AAC 5 1 ESub x264 - Shadow (BonsaiHD)"

Lootcase (2020) Hindi 720p HS WEBRip⭐1 GB⭐ AAC 5 1 ESub x264 - Shadow (BonsaiHD)

To download this torrent, you need a BitTorrent client: Vuze or BTGuard
Download this torrent
Download using Magnet Link

Health:
Seeds: 3,139
Leechers: 1,262
Completed: 12,756 
Last Checked: 01-08-2020 23:01:19

Uploader Reputation points : 964
External: Torrent






Write a Review for the Uploader:   5   Say Thanks with one good review:
Share on Facebook


Details
Name:Lootcase (2020) Hindi 720p HS WEBRip⭐1 GB⭐ AAC 5 1 ESub x264 - Shadow (BonsaiHD)
Description:
If You Need Best Quality in Low Size. Then This Is For You

Please Don't Stop Your Tourrent after download Complete. For seeding



Movie name :

Lootcase (2020) Hindi 720p HS WEBRip⭐1 GB⭐ AAC 5.1 ESub x264 - Shadow (BonsaiHD)


Quote:

Storyline : Nandan Kumar comes across a suitcase and discovers it is full of cash. He takes the suitcase and soon finds himself being chased by a notorious gangster, an honest cop and a minister, who want the suitcase at any cost.

Release date : 31 July 2020 (India)

File size :  GB

Encoded by :- ⭐BonsaiHD⭐

Source :-⭐BonsaiHD⭐











General
Unique ID                                : 157950331709110883914147428607926169950 (0x76D4209A6EA0406A5061AD0AA813715E)
Complete name                            : D:\movies\Lootcase (2020) Hindi 720p HS WEBRip - 1.1 GB - AAC 5.1 ESub x264 - Shadow (BonsaiHD)\lootcase.mkv
Format                                   : Matroska
Format version                           : Version 4
File size                                : 1.06 GiB
Duration                                 : 2 h 11 min
Overall bit rate                         : 1 153 kb/s
Movie name                               : Shadow (BonsaiHD.Fun)
Encoded date                             : UTC 2020-07-31 14:03:16
Writing application                      : mkvmerge v48.0.0 ('Fortress Around Your Heart') 64-bit
Writing library                          : libebml v1.4.0 + libmatroska v1.6.0

Video
ID                                       : 1
Format                                   : AVC
Format/Info                              : Advanced Video Codec
Format profile                           : [email protected]
Format settings                          : CABAC / 4 Ref Frames
Format settings, CABAC                   : Yes
Format settings, Reference frames        : 4 frames
Codec ID                                 : V_MPEG4/ISO/AVC
Duration                                 : 2 h 11 min
Bit rate                                 : 959 kb/s
Width                                    : 1 280 pixels
Height                                   : 536 pixels
Display aspect ratio                     : 2.40:1
Frame rate mode                          : Constant
Frame rate                               : 24.000 FPS
Color space                              : YUV
Chroma subsampling                       : 4:2:0
Bit depth                                : 8 bits
Scan type                                : Progressive
Bits/(Pixel*Frame)                       : 0.058
Stream size                              : 905 MiB (83%)
Title                                    : Shadow (BonsaiHD.Fun)
Writing library                          : x264 core 159
Encoding settings                        : cabac=1 / ref=3 / deblock=1:0:0 / analyse=0x3:0x113 / me=hex / subme=7 / psy=1 / psy_rd=1.00:0.00 / mixed_ref=1 / me_range=16 / chroma_me=1 / trellis=1 / 8x8dct=1 / cqm=0 / deadzone=21,11 / fast_pskip=1 / chroma_qp_offset=-2 / threads=17 / lookahead_threads=2 / sliced_threads=0 / nr=0 / decimate=1 / interlaced=0 / bluray_compat=0 / constrained_intra=0 / bframes=3 / b_pyramid=2 / b_adapt=1 / b_bias=0 / direct=1 / weightb=1 / open_gop=0 / weightp=2 / keyint=250 / keyint_min=24 / scenecut=40 / intra_refresh=0 / rc_lookahead=40 / rc=crf / mbtree=1 / crf=23.0 / qcomp=0.60 / qpmin=0 / qpmax=69 / qpstep=4 / ip_ratio=1.40 / aq=1:1.00
Default                                  : Yes
Forced                                   : No

Audio
ID                                       : 3
Format                                   : AAC LC
Format/Info                              : Advanced Audio Codec Low Complexity
Codec ID                                 : A_AAC-2
Duration                                 : 2 h 11 min
Bit rate                                 : 192 kb/s
Channel(s)                               : 6 channels
Channel layout                           : C L R Ls Rs LFE
Sampling rate                            : 48.0 kHz
Frame rate                               : 46.875 FPS (1024 SPF)
Compression mode                         : Lossy
Stream size                              : 180 MiB (17%)
Title                                    : Shadow (BonsaiHD.Fun)
Language                                 : Hindi
Default                                  : Yes
Forced                                   : No

Text
ID                                       : 2
Format                                   : ASS
Codec ID                                 : S_TEXT/ASS
Codec ID/Info                            : Advanced Sub Station Alpha
Duration                                 : 2 h 4 min
Bit rate                                 : 90 b/s
Count of elements                        : 1546
Compression mode                         : Lossless
Stream size                              : 82.3 KiB (0%)
Title                                    : Shadow (BonsaiHD.Fun)
Language                                 : English
Default                                  : Yes
Forced                                   : No

YouTube Video:
Category:Movies
Language:Hindi  Hindi
Total Size:1.06 GB
Info Hash:F3A64B3EDFED24CBF4894F3556DB758467F2E204
Added By:trueHD Verified Uploader
Date Added:2020-07-31 22:12:42
Torrent Status:Torrent Verified


Ratings:Not Yet Rated (Log in to rate it)


Tracker:
udp://tracker.coppersurfer.tk:6969/announce

This Torrent also has backup trackers
URLSeedersLeechersCompleted
udp://tracker.coppersurfer.tk:6969/announce3111223,028
udp://tracker.leechers-paradise.org:6969/announce000
udp://tracker.cyberia.is:6969/announce201841,180
http://tracker.nyap2p.com:8080/announce9624291,850
udp://p4p.arenabg.com:1337/announce19572797
udp://explodie.org:6969/announce49310
udp://tracker.opentrackr.org:1337/announce19984910
udp://tracker.tiny-vps.com:6969/announce21472918
udp://exodus.desync.com:6969/announce15756542
udp://tracker.torrent.eu.org:451/announce19164925
udp://tracker.moeking.me:6969/announce19268494
udp://ipv4.tracker.harry.lu:80/announce62230
udp://open.stealth.si:80/announce19871948
udp://9.rarbg.to:2710/announce14157886
udp://opentor.org:2710/announce6729278


File List: 





Comments
No comments still posted