Download Magamuni (2019) Tamil 720p AMZN WEBRip ⭐1 GB⭐ DD- 5 1 ESub x264 - Shadow (BonsaiHD) torrent - GloDLS
Torrent Details For "Magamuni (2019) Tamil 720p AMZN WEBRip ⭐1 GB⭐ DD- 5 1 ESub x264 - Shadow (BonsaiH..."

Magamuni (2019) Tamil 720p AMZN WEBRip ⭐1 GB⭐ DD- 5 1 ESub x264 - Shadow (BonsaiH...

To download this torrent, you need a BitTorrent client: Vuze or BTGuard
Download this torrent
Download using Magnet Link

Health:
Seeds: 0
Leechers: 0
Completed:
Last Checked: 30-06-2020 15:04:29

Uploader Reputation points : 814
External: Torrent






Write a Review for the Uploader:   5   Say Thanks with one good review:
Share on Facebook


Details
Name:Magamuni (2019) Tamil 720p AMZN WEBRip ⭐1 GB⭐ DD- 5 1 ESub x264 - Shadow (BonsaiH...
Description:
If You Need Best Quality in Low Size. Then This Is For You

Please Don't Stop Your Tourrent after download Complete. For seeding



Movie name :

Magamuni (2019) Tamil 720p AMZN WEBRip ⭐1.2 GB⭐ DD- 5.1 ESub x264 - Shadow (BonsaiHD)


Quote:

*PiRATES_NEVER_DiE!*

*We Just go ON and On and On...FOREVER!*

We Team @Shadow Requests all our lovely fans kindly be home and enjoy our releases.Be safe and enjoy


कोरोना से बचाव:
घर पर फिल्में देखें। घर में रहें, सुरक्षित रहें। सरकार द्वारा दिए गए सभी दिशानिर्देशों और सावधानियों का जरूर पालन करें।


Fight Corona:
Watch movies at home. Stay Home, Stay Safe. Must Follow All the guidelines and precautions advised by the Government.

Thank you


Quote:

Storyline : Two long-separated brothers end up in life-threatening situations. How do their lives intersect and what happens next? ......

Release date : 6 September 2019 (UK)

File size : 1.2 GB

Encoded by :- ⭐BonsaiHD⭐

Source :-⭐BonsaiHD⭐










General
Unique ID                                : 27252398502897306637084670278713159636 (0x14809EFC09FDCEF6F7F5ED7EADCF2FD4)
Complete name                            : Magamuni.2019.Tamil.720p.AMZN.WEBRip.DD-5.1.ESub.BonsaiHD-Shadow.mkv
Format                                   : Matroska
Format version                           : Version 4
File size                                : 1.22 GiB
Duration                                 : 2 h 36 min
Overall bit rate                         : 1 121 kb/s
Movie name                               : BonsaiHD.Fun
Encoded date                             : UTC 2020-06-30 13:55:48
Writing application                      : mkvmerge v31.0.0 ('Dolores In A Shoestand') 64-bit
Writing library                          : libebml v1.3.6 + libmatroska v1.4.9

Video
ID                                       : 1
Format                                   : AVC
Format/Info                              : Advanced Video Codec
Format profile                           : [email protected]
Format settings                          : CABAC / 3 Ref Frames
Format settings, CABAC                   : Yes
Format settings, Reference frames        : 3 frames
Codec ID                                 : V_MPEG4/ISO/AVC
Duration                                 : 2 h 36 min
Bit rate                                 : 927 kb/s
Width                                    : 1 280 pixels
Height                                   : 534 pixels
Display aspect ratio                     : 2.40:1
Frame rate mode                          : Constant
Frame rate                               : 24.000 FPS
Color space                              : YUV
Chroma subsampling                       : 4:2:0
Bit depth                                : 8 bits
Scan type                                : Progressive
Bits/(Pixel*Frame)                       : 0.057
Stream size                              : 1.01 GiB (83%)
Title                                    : BonsaiHD.Fun
Default                                  : Yes
Forced                                   : No
Color range                              : Limited
Color primaries                          : BT.709
Transfer characteristics                 : BT.709
Matrix coefficients                      : BT.709

Audio
ID                                       : 2
Format                                   : AC-3
Format/Info                              : Audio Coding 3
Commercial name                          : Dolby Digital
Codec ID                                 : A_AC3
Duration                                 : 2 h 36 min
Bit rate mode                            : Constant
Bit rate                                 : 192 kb/s
Channel(s)                               : 6 channels
Channel layout                           : L R C LFE Ls Rs
Sampling rate                            : 48.0 kHz
Frame rate                               : 31.250 FPS (1536 SPF)
Compression mode                         : Lossy
Stream size                              : 214 MiB (17%)
Title                                    : BonsaiHD.Fun
Language                                 : Tamil
Service kind                             : Complete Main
Default                                  : Yes
Forced                                   : No

Text
ID                                       : 3
Format                                   : UTF-8
Codec ID                                 : S_TEXT/UTF8
Codec ID/Info                            : UTF-8 Plain Text
Duration                                 : 2 h 32 min
Bit rate                                 : 63 b/s
Count of elements                        : 2942
Stream size                              : 70.5 KiB (0%)
Title                                    : BonsaiHD.Fun
Language                                 : English
Default                                  : Yes
Forced                                   : No


YouTube Video:
Category:Movies
Language:Tamil
Total Size:1.22 GB
Info Hash:CAF0DB46B009C0C85261C2C486EAE91D634D1B73
Added By:trueHD Verified Uploader
Date Added:2020-06-30 22:04:26
Torrent Status:Torrent Verified


Ratings:Not Yet Rated (Log in to rate it)


Tracker:
udp://tracker.coppersurfer.tk:6969/announce

This Torrent also has backup trackers
URLSeedersLeechersCompleted
udp://tracker.coppersurfer.tk:6969/announce000
udp://tracker.leechers-paradise.org:6969/announce000
udp://tracker.cyberia.is:6969/announce000
udp://tracker.iamhansen.xyz:2000/announce000
udp://p4p.arenabg.com:1337/announce000
udp://explodie.org:6969/announce000
udp://tracker.opentrackr.org:1337/announce000
udp://tracker.tiny-vps.com:6969/announce000
udp://exodus.desync.com:6969/announce000
udp://tracker.torrent.eu.org:451/announce000
udp://tracker.moeking.me:6969/announce000
udp://ipv4.tracker.harry.lu:80/announce000
udp://open.stealth.si:80/announce000
udp://9.rarbg.to:2710/announce000
udp://opentor.org:2710/announce000


File List: 





Comments
No comments still posted