GloDLS.to - Download Movies, TV, Games and Other Torrents Free RSS 2.0enGloDLS.to - Download Movies, TV, Games and Other Torrents FreeGloDLS.to - Download Movies, TV, Games and Other Torrents Free RSS Feedhttp://glodls.toCopyright GloDLS.to - Download Movies, TV, Games and Other Torrents FreeFri, 22 Nov 2019 19:22:42 +0800 Emily Addison, Gabbie Carter - Clit Counseling (22 11 2019) http://glodls.to/torrent.php?id=10277236 http://glodls.to/torrent.php?id=10277236 Fri, 22 Nov 2019 19:22:33 +0800 Adult XXX Casts: Emily Addison, Gabbie Carter
Video: MPEG4 Video (H264) 854x480 (16:9) 23.976fps 1764kbps
Audio: AAC 48000Hz stereo 163kbps

[URL=https://dailyimages.xyz/847q.html][IMG]https://dailyimages.xyz/img/4/f/5/266490p.jpeg[/IMG][/URL] ]]>
Six Children and One Grandfather 2019 HDRip XviD AC3 LLG http://glodls.to/torrent.php?id=10277214 http://glodls.to/torrent.php?id=10277214 Fri, 22 Nov 2019 19:16:54 +0800 Movies [center]
[b]

******************************Thumbnail:**********************

[url=https://allpagal.info/00/0251.htm][img]https://allpagal.info/00/000251.png[/img][/url]


******************************Screenshots:********************

[url=https://allpagal.info/00/0251.htm]Screenshot 1[/url]

[url=https://allpagal.info/00/0252.htm]Screenshot 2[/url]

[url=https://allpagal.info/00/0253.htm]Screenshot 3[/url]

[url=https://allpagal.info/00/0254.htm]Screenshot 4[/url]

[url=https://allpagal.info/00/0255.htm]Screenshot 5[/url]

[url=https://allpagal.info/00/0256.htm]Screenshot 6[/url]

[url=https://allpagal.info/00/0257.htm]Screenshot 7[/url]

[url=https://allpagal.info/00/0258.htm]Screenshot 8[/url]

[url=https://allpagal.info/00/0259.htm]Screenshot 9[/url]

[url=https://allpagal.info/00/0260.htm]Screenshot 0[/url]

**********************************************************
General
Six.Children.and.One.Grandfather.2019.HDRip.XviD.AC3.LLG.mp4
Format : MPEG-4
Format profile : Base Media
Codec ID : isom (isom/iso2/avc1/mp41)
File size : 964 MiB
Duration : 1 h 45 min
Overall bit rate mode : Variable
Overall bit rate : 1 281 kb/s
Writing application : Lavf57.83.100

Video
ID : 1
Format : AVC
Format/Info : Advanced Video Codec
Format profile : Main@L3
Format settings : CABAC / 1 Ref Frames
Format settings, CABAC : Yes
Format settings, Reference frames : 1 frame
Codec ID : avc1
Codec ID/Info : Advanced Video Coding
Duration : 1 h 45 min
Bit rate mode : Variable
Bit rate : 893 kb/s
Maximum bit rate : 2 700 kb/s
Width : 720 pixels
Height : 384 pixels
Display aspect ratio : 1.85:1
Frame rate mode : Constant
Frame rate : 23.976 (23976/1000) FPS
Color space : YUV
Chroma subsampling : 4:2:0
Bit depth : 8 bits
Scan type : Progressive
Bits/(Pixel*Frame) : 0.135
Stream size : 672 MiB (70%)
Codec configuration box : avcC

Audio
ID : 2
Format : AC-3
Format/Info : Audio Coding 3
Commercial name : Dolby Digital
Codec ID : ac-3
Duration : 1 h 45 min
Bit rate mode : Constant
Bit rate : 384 kb/s
Channel(s) : 6 channels
Channel layout : L R C LFE Ls Rs
Sampling rate : 48.0 kHz
Frame rate : 31.250 FPS (1536 SPF)
Compression mode : Lossy
Stream size : 289 MiB (30%)
Title : Surround
Language : English
Service kind : Complete Main
Default : Yes
Alternate group : 1



**********************************************************

[/b]
[/center]
[/quote] ]]>
Outback Opal Hunters S03E06 720p HDTV Nemo mkv http://glodls.to/torrent.php?id=10277203 http://glodls.to/torrent.php?id=10277203 Fri, 22 Nov 2019 19:09:57 +0800 TV
The stakes are real as these crews risk it all in their quest to strike it rich. Outback Opal Hunters is a rollercoaster of hope and heartbreak as we delve deep inside the world of opal mining to find out just what it is that has our crews hooked on the hunt.

Australia produces more than 90% of the world's opals. Hidden beneath outback desert plains lies a hidden bounty, 30 million years in the making, waiting to be discovered. Opals are one of the most valuable gemstones on the planet - one stone alone can fetch a million dollars - and it's the dream of striking it rich that drives these crews to push their bodies and bank accounts to breaking point.

[b][u]Episode 6[/u][/b]

The Bushmen risk their lives in the fight to get their 1t digger down a 20m-deep mine shaft. New alliances are forged as the Boulder Boys hit pay dirt.

[b][color=#ff0000]Please do not tag or rehash this release as all that achieves is to dilute the file spread. Feel free to post this release elsewhere but please leave it as it is.

Thank you,
skorpion.[/color][/b]

[img]https://i.imgaa.com/2019/11/22/5dd7c17d0c201.jpg[/img]
]]>
Adel Morel & Amelia Nice - A special breakfast 720p http://glodls.to/torrent.php?id=10277200 http://glodls.to/torrent.php?id=10277200 Fri, 22 Nov 2019 19:05:42 +0800 Adult XXX Date: 2019
Casts: Adel Morel & Amelia Nice
Video: AVC, 1280x720 (16:9), 29.970 fps, 2 500 kb/s (0.091 bit/pixel)
Audio: AAC, 44.1 kHz, 2 ch, 129 kb/s, CBR (English)




[URL=https://dailyimages.xyz/847j.html][IMG]https://dailyimages.xyz/img/6/b/3/266486p.jpeg[/IMG][/URL] ]]>
Outback Opal Hunters S03E06 PDTV Nemo mkv http://glodls.to/torrent.php?id=10277196 http://glodls.to/torrent.php?id=10277196 Fri, 22 Nov 2019 19:05:24 +0800 TV
The stakes are real as these crews risk it all in their quest to strike it rich. Outback Opal Hunters is a rollercoaster of hope and heartbreak as we delve deep inside the world of opal mining to find out just what it is that has our crews hooked on the hunt.

Australia produces more than 90% of the world's opals. Hidden beneath outback desert plains lies a hidden bounty, 30 million years in the making, waiting to be discovered. Opals are one of the most valuable gemstones on the planet - one stone alone can fetch a million dollars - and it's the dream of striking it rich that drives these crews to push their bodies and bank accounts to breaking point.

[b][u]Episode 6[/u][/b]

The Bushmen risk their lives in the fight to get their 1t digger down a 20m-deep mine shaft. New alliances are forged as the Boulder Boys hit pay dirt.

[b][color=#ff0000]Please do not tag or rehash this release as all that achieves is to dilute the file spread. Feel free to post this release elsewhere but please leave it as it is.

Thank you,
skorpion.[/color][/b]

[img]https://i.imgaa.com/2019/11/22/5dd7c04a8b17c.jpg[/img]
]]>
Once Upon A Time In Hollywood 2019 HDRip XviD LLG http://glodls.to/torrent.php?id=10277179 http://glodls.to/torrent.php?id=10277179 Fri, 22 Nov 2019 19:04:06 +0800 Movies [center]
[b]

******************************Thumbnail:**********************

[url=https://allpagal.info/00/0241.htm][img]https://allpagal.info/00/000241.png[/img][/url]


******************************Screenshots:********************

[url=https://allpagal.info/00/0241.htm]Screenshot 1[/url]

[url=https://allpagal.info/00/0242.htm]Screenshot 2[/url]

[url=https://allpagal.info/00/0243.htm]Screenshot 3[/url]

[url=https://allpagal.info/00/0244.htm]Screenshot 4[/url]

[url=https://allpagal.info/00/0245.htm]Screenshot 5[/url]

[url=https://allpagal.info/00/0246.htm]Screenshot 6[/url]

[url=https://allpagal.info/00/0247.htm]Screenshot 7[/url]

[url=https://allpagal.info/00/0248.htm]Screenshot 8[/url]

[url=https://allpagal.info/00/0249.htm]Screenshot 9[/url]

[url=https://allpagal.info/00/0250.htm]Screenshot 0[/url]

**********************************************************
General
Once Upon A Time In Hollywood.2019.HDRip.XviD.LLG.mp4
Format : MPEG-4
Format profile : Base Media
Codec ID : isom (isom/iso2/avc1/mp41)
File size : 1.39 GiB
Duration : 2 h 34 min
Overall bit rate mode : Variable
Overall bit rate : 1 290 kb/s
Writing application : Lavf57.83.100

Video
ID : 1
Format : AVC
Format/Info : Advanced Video Codec
Format profile : Main@L2.2
Format settings : CABAC / 1 Ref Frames
Format settings, CABAC : Yes
Format settings, Reference frames : 1 frame
Codec ID : avc1
Codec ID/Info : Advanced Video Coding
Duration : 2 h 34 min
Bit rate mode : Variable
Bit rate : 903 kb/s
Maximum bit rate : 2 700 kb/s
Width : 720 pixels
Height : 280 pixels
Display aspect ratio : 2.571
Frame rate mode : Constant
Frame rate : 25.000 FPS
Color space : YUV
Chroma subsampling : 4:2:0
Bit depth : 8 bits
Scan type : Progressive
Bits/(Pixel*Frame) : 0.179
Stream size : 999 MiB (70%)
Codec configuration box : avcC

Audio
ID : 2
Format : AC-3
Format/Info : Audio Coding 3
Commercial name : Dolby Digital
Codec ID : ac-3
Duration : 2 h 34 min
Bit rate mode : Constant
Bit rate : 384 kb/s
Channel(s) : 2 channels
Channel layout : L R
Sampling rate : 48.0 kHz
Frame rate : 31.250 FPS (1536 SPF)
Compression mode : Lossy
Stream size : 425 MiB (30%)
Title : Stereo
Language : English
Service kind : Complete Main
Default : Yes
Alternate group : 1


**********************************************************

[/b]
[/center]
[/quote] ]]>
Aria Banks - Cute Aria Banks in First Porn Scene (22 11 2019) 1080p http://glodls.to/torrent.php?id=10277174 http://glodls.to/torrent.php?id=10277174 Fri, 22 Nov 2019 19:02:39 +0800 Adult XXX Casts: Aria Banks
Video: MPEG4 Video (H264), 1920x1080 30,000fps, 8000kbps;
Audio: AAC 44,1Hz, stereo, 320kbps;




[URL=https://dailyimages.xyz/847d.html][IMG]https://dailyimages.xyz/img/b/0/6/266480p.jpeg[/IMG][/URL] ]]>
Young Girls Swallow (2019)[WEBRip][ MP4] http://glodls.to/torrent.php?id=10277100 http://glodls.to/torrent.php?id=10277100 Fri, 22 Nov 2019 18:55:17 +0800 Adult XXX
Screen:

[url=https://imguur.pictures/share-9B5B_5DD7B854.html][img]https://imguur.pictures/thumb-9B5B_5DD7B854.jpg[/img][/url]

[url=https://imguur.pictures/share-E45A_5DD7B854.html][img]https://imguur.pictures/thumb-E45A_5DD7B854.jpg[/img][/url]

[url=https://imguur.pictures/share-7978_5DD7B854.html][img]https://imguur.pictures/thumb-7978_5DD7B854.jpg[/img][/url]

[url=https://imguur.pictures/share-521E_5DD7B854.html][img]https://imguur.pictures/thumb-521E_5DD7B854.jpg[/img][/url]

COVER:

[url=https://imguur.pictures/share-AC25_5DD7B854.html][img]https://imguur.pictures/thumb-AC25_5DD7B854.jpg[/img][/url]

File Size: 2,42 GB | Resolution: 720x406 | Duration: 04:37:33 | Format: mp4

Young girls swallow. Its why we love them. But when they grow old, things change. Celebrate youth and the cum swallowing that goes with it by watching Kennedy Leigh, Emma Hix, Alex Grey, and more semen-slurping babes take hardcore fucking to its most gratifying conclusion!

Cast: Emma Hix, Alex Grey, Aria Alexander, Kennedy Leigh, Giselle Leon, Avril Hall, Tracey Sweet, Penelope Stone, Megan Piper, Aurora Monroe
Categories: 18+ Teens, Blowjobs, Compilation, Cumshots, Facials, Swallowing, Hardcore, Oral, Felatio, Pornstars
Length: 4 hrs. 38 mins.
Rating: XXX
Released: Jul 09 2019
Production Year: 2019
Studio: New Sensations

Video: MPEG4 Video (H264) 720x406 23.976fps 1115kbps
Audio: AAC 48000Hz stereo 126kbps ]]>
Vanessa Cage, Allie Nicole - Paying For Pleasure (22 11 2019) http://glodls.to/torrent.php?id=10277085 http://glodls.to/torrent.php?id=10277085 Fri, 22 Nov 2019 18:50:24 +0800 Adult XXX Casts: Vanessa Cage, Allie Nicol
Video: MPEG4 Video (H264) 848x480 29.97fps 1800kbps
Audio: AAC 48000Hz stereo 96kbps

[URL=https://dailyimages.xyz/8479.html][IMG]https://dailyimages.xyz/img/e/7/c/266473p.jpeg[/IMG][/URL] ]]>
It Chapter Two 2019 HDRip XviD AC3 LLG http://glodls.to/torrent.php?id=10277062 http://glodls.to/torrent.php?id=10277062 Fri, 22 Nov 2019 18:48:54 +0800 Movies [center]
[b]

******************************Thumbnail:**********************

[url=https://allpagal.info/00/0231.htm][img]https://allpagal.info/00/000231.png[/img][/url]


******************************Screenshots:********************

[url=https://allpagal.info/00/0231.htm]Screenshot 1[/url]

[url=https://allpagal.info/00/0232.htm]Screenshot 2[/url]

[url=https://allpagal.info/00/0233.htm]Screenshot 3[/url]

[url=https://allpagal.info/00/0234.htm]Screenshot 4[/url]

[url=https://allpagal.info/00/0235.htm]Screenshot 5[/url]

[url=https://allpagal.info/00/0236.htm]Screenshot 6[/url]

[url=https://allpagal.info/00/0237.htm]Screenshot 7[/url]

[url=https://allpagal.info/00/0238.htm]Screenshot 8[/url]

[url=https://allpagal.info/00/0239.htm]Screenshot 9[/url]

[url=https://allpagal.info/00/0240.htm]Screenshot 0[/url]

**********************************************************
General
It.Chapter.Two.2019.HDRip.XviD.AC3.LLG.mp4
Format : MPEG-4
Format profile : Base Media
Codec ID : isom (isom/iso2/avc1/mp41)
File size : 1.52 GiB
Duration : 2 h 49 min
Overall bit rate mode : Variable
Overall bit rate : 1 282 kb/s
Writing application : Lavf57.83.100

Video
ID : 1
Format : AVC
Format/Info : Advanced Video Codec
Format profile : Main@L3
Format settings : CABAC / 1 Ref Frames
Format settings, CABAC : Yes
Format settings, Reference frames : 1 frame
Codec ID : avc1
Codec ID/Info : Advanced Video Coding
Duration : 2 h 49 min
Bit rate mode : Variable
Bit rate : 894 kb/s
Maximum bit rate : 2 700 kb/s
Width : 720 pixels
Height : 302 pixels
Display aspect ratio : 2.40:1
Frame rate mode : Constant
Frame rate : 23.976 (23976/1000) FPS
Color space : YUV
Chroma subsampling : 4:2:0
Bit depth : 8 bits
Scan type : Progressive
Bits/(Pixel*Frame) : 0.172
Stream size : 1.06 GiB (70%)
Codec configuration box : avcC

Audio
ID : 2
Format : AC-3
Format/Info : Audio Coding 3
Commercial name : Dolby Digital
Codec ID : ac-3
Duration : 2 h 49 min
Bit rate mode : Constant
Bit rate : 384 kb/s
Channel(s) : 6 channels
Channel layout : L R C LFE Ls Rs
Sampling rate : 48.0 kHz
Frame rate : 31.250 FPS (1536 SPF)
Compression mode : Lossy
Stream size : 465 MiB (30%)
Title : Surround
Language : English
Service kind : Complete Main
Default : Yes
Alternate group : 1


**********************************************************

[/b]
[/center]
[/quote] ]]>
Jenny Wild & Stanley Jones - Apt 44 Episode 2 720p http://glodls.to/torrent.php?id=10277051 http://glodls.to/torrent.php?id=10277051 Fri, 22 Nov 2019 18:45:05 +0800 Adult XXX Date: 2019
Casts: Jenny Wild
Video: AVC, 1280x720 (16:9), 25.000 fps, 4 000 kb/s (0.174 bit/pixel)
Audio: AAC, 44.1 kHz, 2 ch, 96.0 kb/s, CBR (English)




[URL=https://dailyimages.xyz/8470.html][IMG]https://dailyimages.xyz/img/1/2/f/266467p.jpeg[/IMG][/URL] ]]>
WoodmanCastingX - Kris The Foxx (XXXX - I love anal sex) NEW 20 November 2019 http://glodls.to/torrent.php?id=10277047 http://glodls.to/torrent.php?id=10277047 Fri, 22 Nov 2019 18:43:38 +0800 Adult XXX [URL]http://imgtornado.com/img-5dd7d9d9bea94.html[/URL]

[URL]http://imgtornado.com/img-5dd7da2b7f85c.html[/URL]

Tags: Anal, All Sex, Teen, Hardcore
]]>
Jessa Rose - Double The Cum (22 11 2019) http://glodls.to/torrent.php?id=10277046 http://glodls.to/torrent.php?id=10277046 Fri, 22 Nov 2019 18:43:35 +0800 Adult XXX Casts: Jessa Rose
Video: MPEG4 Video (H264) 640x360 29.97fps 1400kbps
Audio: AAC 48000Hz stereo 96kbps

[URL=https://dailyimages.xyz/8475.html][IMG]https://dailyimages.xyz/img/d/e/2/266469p.jpeg[/IMG][/URL] ]]>
TonightsGirlfriend - Lillian Stone (25704) NEW 22 November 2019 http://glodls.to/torrent.php?id=10277043 http://glodls.to/torrent.php?id=10277043 Fri, 22 Nov 2019 18:43:03 +0800 Adult XXX [URL]http://imgtornado.com/img-5dd7d9d9b997b.html[/URL]

[URL]http://imgtornado.com/img-5dd7da233ed27.html[/URL]

I've been a fan of Lilian Stone for a while. I've been trying to convince her to meet me in person and she finally agrees. It wasn't a cheap trip but it will be worth it when I finally get to live out my fantasies with Lilian Stone.
]]>
PureMature - Cory Chase (Anal Education) NEW 21 November 2019 http://glodls.to/torrent.php?id=10277041 http://glodls.to/torrent.php?id=10277041 Fri, 22 Nov 2019 18:42:29 +0800 Adult XXX [URL]http://imgtornado.com/img-5dd7d9d9b61d6.html[/URL]

[URL]http://imgtornado.com/img-5dd7da16487e0.html[/URL]

Tags: All Sex, Blowjob, Anal, MILF, Toys, Big Tits, Creampie
]]>
Janey Doe - Janey Doe Takes His Verginity 4k 720p http://glodls.to/torrent.php?id=10277035 http://glodls.to/torrent.php?id=10277035 Fri, 22 Nov 2019 18:39:39 +0800 Adult XXX Date: 2019
Casts: Janey Doe
Video: AVC, 1280x720 (16:9), 30.000 fps, 5 000 kb/s (0.181 bit/pixel)
Audio: AAC, 44.1 kHz, 2 ch, 128 kb/s, CBR (Spanish)




[URL=https://dailyimages.xyz/846m.html][IMG]https://dailyimages.xyz/img/1/f/2/266457p.jpeg[/IMG][/URL] ]]>
Jenny Wild & Stanley Jones - Apt 44 Episode 2 1080p http://glodls.to/torrent.php?id=10277031 http://glodls.to/torrent.php?id=10277031 Fri, 22 Nov 2019 18:37:59 +0800 Adult XXX Date: 2019
Casts: Jenny Wild
Video: AVC, 1920x1080 (16:9), 25.000 fps, 8 000 kb/s (0.154 bit/pixel)
Audio: AAC, 44.1 kHz, 2 ch, 96.0 kb/s, CBR (English)




[URL=https://dailyimages.xyz/846r.html][IMG]https://dailyimages.xyz/img/f/3/d/266462p.jpeg[/IMG][/URL] ]]>
Holiday Heist 2019 HDRip XviD AC3 LLG http://glodls.to/torrent.php?id=10277028 http://glodls.to/torrent.php?id=10277028 Fri, 22 Nov 2019 18:36:46 +0800 Movies [center]
[b]

******************************Thumbnail:**********************

[url=https://allpagal.info/00/0221.htm][img]https://allpagal.info/00/000221.png[/img][/url]


******************************Screenshots:********************

[url=https://allpagal.info/00/0221.htm]Screenshot 1[/url]

[url=https://allpagal.info/00/0222.htm]Screenshot 2[/url]

[url=https://allpagal.info/00/0223.htm]Screenshot 3[/url]

[url=https://allpagal.info/00/0224.htm]Screenshot 4[/url]

[url=https://allpagal.info/00/0225.htm]Screenshot 5[/url]

[url=https://allpagal.info/00/0226.htm]Screenshot 6[/url]

[url=https://allpagal.info/00/0227.htm]Screenshot 7[/url]

[url=https://allpagal.info/00/0228.htm]Screenshot 8[/url]

[url=https://allpagal.info/00/0229.htm]Screenshot 9[/url]

[url=https://allpagal.info/00/0230.htm]Screenshot 0[/url]

**********************************************************
General
Holiday.Heist.2019.HDRip.XviD.AC3.LLG.mp4
Format : MPEG-4
Format profile : Base Media
Codec ID : isom (isom/iso2/avc1/mp41)
File size : 993 MiB
Duration : 1 h 27 min
Overall bit rate mode : Variable
Overall bit rate : 1 591 kb/s
Writing application : Lavf57.83.100

Video
ID : 1
Format : AVC
Format/Info : Advanced Video Codec
Format profile : Main@L3
Format settings : CABAC / 1 Ref Frames
Format settings, CABAC : Yes
Format settings, Reference frames : 1 frame
Codec ID : avc1
Codec ID/Info : Advanced Video Coding
Duration : 1 h 27 min
Bit rate mode : Variable
Bit rate : 1 204 kb/s
Maximum bit rate : 3 600 kb/s
Width : 720 pixels
Height : 404 pixels
Display aspect ratio : 16:9
Frame rate mode : Constant
Frame rate : 23.976 (23976/1000) FPS
Color space : YUV
Chroma subsampling : 4:2:0
Bit depth : 8 bits
Scan type : Progressive
Bits/(Pixel*Frame) : 0.173
Stream size : 751 MiB (76%)
Codec configuration box : avcC

Audio
ID : 2
Format : AC-3
Format/Info : Audio Coding 3
Commercial name : Dolby Digital
Codec ID : ac-3
Duration : 1 h 27 min
Bit rate mode : Constant
Bit rate : 384 kb/s
Channel(s) : 6 channels
Channel layout : L R C LFE Ls Rs
Sampling rate : 48.0 kHz
Frame rate : 31.250 FPS (1536 SPF)
Compression mode : Lossy
Stream size : 240 MiB (24%)
Language : English
Service kind : Complete Main
Default : Yes
Alternate group : 1



**********************************************************

[/b]
[/center]
[/quote] ]]>
Angel Has Fallen 2019 HDRip XviD AC3 LLG http://glodls.to/torrent.php?id=10276996 http://glodls.to/torrent.php?id=10276996 Fri, 22 Nov 2019 18:23:37 +0800 Movies [center]
[b]

******************************Thumbnail:**********************

[url=https://allpagal.info/00/0211.htm][img]https://allpagal.info/00/000211.png[/img][/url]


******************************Screenshots:********************

[url=https://allpagal.info/00/0211.htm]Screenshot 1[/url]

[url=https://allpagal.info/00/0212.htm]Screenshot 2[/url]

[url=https://allpagal.info/00/0213.htm]Screenshot 3[/url]

[url=https://allpagal.info/00/0214.htm]Screenshot 4[/url]

[url=https://allpagal.info/00/0215.htm]Screenshot 5[/url]

[url=https://allpagal.info/00/0216.htm]Screenshot 6[/url]

[url=https://allpagal.info/00/0217.htm]Screenshot 7[/url]

[url=https://allpagal.info/00/0218.htm]Screenshot 8[/url]

[url=https://allpagal.info/00/0219.htm]Screenshot 9[/url]

[url=https://allpagal.info/00/0220.htm]Screenshot 0[/url]

**********************************************************
General
Angel.Has.Fallen.2019.HDRip.XviD.AC3.LLG.mp4
Format : MPEG-4
Format profile : Base Media
Codec ID : isom (isom/iso2/avc1/mp41)
File size : 1.09 GiB
Duration : 2 h 1 min
Overall bit rate mode : Variable
Overall bit rate : 1 286 kb/s
Writing application : Lavf57.83.100

Video
ID : 1
Format : AVC
Format/Info : Advanced Video Codec
Format profile : Main@L3
Format settings : CABAC / 1 Ref Frames
Format settings, CABAC : Yes
Format settings, Reference frames : 1 frame
Codec ID : avc1
Codec ID/Info : Advanced Video Coding
Duration : 2 h 1 min
Bit rate mode : Variable
Bit rate : 898 kb/s
Maximum bit rate : 2 700 kb/s
Width : 720 pixels
Height : 300 pixels
Display aspect ratio : 2.40:1
Frame rate mode : Constant
Frame rate : 23.976 (23976/1000) FPS
Color space : YUV
Chroma subsampling : 4:2:0
Bit depth : 8 bits
Scan type : Progressive
Bits/(Pixel*Frame) : 0.173
Stream size : 778 MiB (70%)
Codec configuration box : avcC

Audio
ID : 2
Format : AC-3
Format/Info : Audio Coding 3
Commercial name : Dolby Digital
Codec ID : ac-3
Duration : 2 h 1 min
Bit rate mode : Constant
Bit rate : 384 kb/s
Channel(s) : 6 channels
Channel layout : L R C LFE Ls Rs
Sampling rate : 48.0 kHz
Frame rate : 31.250 FPS (1536 SPF)
Compression mode : Lossy
Stream size : 332 MiB (30%)
Language : English
Service kind : Complete Main
Default : Yes
Alternate group : 1


**********************************************************

[/b]
[/center]
[/quote] ]]>
MyFamilyPies - Avi Love, Paisley Bennett (Thanksgiving Is For Creampies) NEW 22 November 2019 http://glodls.to/torrent.php?id=10276994 http://glodls.to/torrent.php?id=10276994 Fri, 22 Nov 2019 18:22:16 +0800 Adult XXX [URL]http://imgtornado.com/img-5dd7d23c2a00d.html[/URL]

[URL]http://imgtornado.com/img-5dd7d60ae314b.html[/URL]

Stepsisters Avi Love and Paisley Bennett haven't seen their family friend, Seth Gamble, in years. Growing up, Seth was so close to the girls that they referred to him as their cousin. Now, he's just smoking hot and the girls can't stop flirting. Serene Siren and Brock Doom tell their daughters to go set the table for Thanksgiving while they finish up cooking dinner. Paisley goes ahead, but Avi tugs Seth along with them. With a little bit of privacy, the girls have time to flash their tits and asses at Seth as they continue to flirt with him. They're both a bit competitive, but they manage to not get caught by their parents. Once they're seated at the table, the girls continue to compete for Seth's attention. They get sexual with the way they suck their silverware. When that doesn't work, Paisley reaches over and pops Seth's hard dick from his pants to start stroking him off. Avi isn't about to be outdone. She puts her hand over Paisley's so they're delivering a double handie. Standing up and lifting her miniskirt, Avi ups the ante by sliding down on Seth's dick right at the dinner table. Serene calls Avi out and she gets off of him reluctantly. They manage to wait until Serene and Brock declare that they're full and clear the plates from the table...
Tags: All Sex, Blowjob, Handjob, Doggystyle, Missionary, Cowgirl, Tattoo, Piercing, Creampie, Natural Tits
]]>
Cute Aria Banks in First Porn Scene (11 22 19) http://glodls.to/torrent.php?id=10276991 http://glodls.to/torrent.php?id=10276991 Fri, 22 Nov 2019 18:20:58 +0800 Adult XXX Video codec: H.264 / AVC / MPEG-4 AVC / MPEG-4 part 10; Video: 960x540, 16:9, 30fps, 1.49Mbps;
Audio codec: AAC (Advanced Audio Coding); Audio: 128Kbps, 2 channels (stereo);
https://discountxpic.xyz/img-5dd7b4667c970.html
https://discountxpic.xyz/img-5dd7b46688814.html

[URL=https://discountxpic.xyz/img-5dd7b4667c970.html][IMG]https://discountxpic.xyz/upload/small/2019/11/22/5dd7b4667c939.jpeg[/IMG][/URL] ]]>
Rose Monroe, Julz Gotti - FilthyFamily (11 22 19) http://glodls.to/torrent.php?id=10276975 http://glodls.to/torrent.php?id=10276975 Fri, 22 Nov 2019 18:20:10 +0800 Adult XXX Video codec: H.264 / AVC / MPEG-4 AVC / MPEG-4 part 10; Video: 852x480, 0:1, 23.98fps, 1.44Mbps;
Audio codec: AAC (Advanced Audio Coding); Audio: 45Kbps, 2 channels (stereo);
https://discountxpic.xyz/img-5dd7b4ca19369.html
https://discountxpic.xyz/img-5dd7b4ca24104.html

[URL=https://discountxpic.xyz/img-5dd7b4ca19369.html][IMG]https://discountxpic.xyz/upload/small/2019/11/22/5dd7b4ca19333.jpeg[/IMG][/URL] ]]>
TS Girls On Top 3 (TransSensual, Ricky Greenwood) 2019 (Split Scenes) rq http://glodls.to/torrent.php?id=10276967 http://glodls.to/torrent.php?id=10276967 Fri, 22 Nov 2019 18:19:50 +0800 Adult XXX
Cast
Casey Kisses, Kayleigh Coxx, Korra Del Rio, Natalie Mars

Screens

http://imgjazz.com/img-5dd7b60fa94d5.html
http://imgjazz.com/img-5dd7b6101bb14.html
http://imgjazz.com/img-5dd7b610681ac.html
http://imgjazz.com/img-5dd7b610b431d.html



Audio: aac, 44100 Hz, stereo, s16, 192 kb/s (eng)
Video: h264, yuv420p, 960x544, 1292 kb/s, 23,98 fps(r) (und) ]]>
Adriana Maya - The Horny Job Hunter 1080p http://glodls.to/torrent.php?id=10276964 http://glodls.to/torrent.php?id=10276964 Fri, 22 Nov 2019 18:17:21 +0800 Adult XXX Date: 2019
Casts: Adriana Maya
Video: AVC, 1920x1080 (16:9), 29.970 fps, 12.0 Mb/s (0.193 bit/pixel)
Audio: AAC, 48.0 kHz, 2 ch, 96.0 kb/s, VBR (English)




[URL=https://dailyimages.xyz/844n.html][IMG]https://dailyimages.xyz/img/c/f/6/266394p.jpeg[/IMG][/URL] ]]>
Nympho - Uma Jolie (Uma Unleashed) NEW 21 November 2019 http://glodls.to/torrent.php?id=10276962 http://glodls.to/torrent.php?id=10276962 Fri, 22 Nov 2019 18:16:56 +0800 Adult XXX [URL]http://imgtornado.com/img-5dd7d23c2f9a8.html[/URL]

[URL]http://imgtornado.com/img-5dd7d455d962e.html[/URL]

Super hot nympho Uma Jolie is back for another good fuck. She loves every second of the action, from getting nasty eating ass and giving a sloppy blowjob to riding cock like only she can. This babe looks so good while her tight pussy gets filled and she gets off getting cramped by that big dick.
Tags: Exclusive, Rim Job, Pov, Interracial, Big Dick, Gonzo, Hardcore, Natural Tits, Brunette, Shaved Pussy, Blowjob, Swallow
]]>
Adriana Maya - The Horny Job Hunter 720p http://glodls.to/torrent.php?id=10276961 http://glodls.to/torrent.php?id=10276961 Fri, 22 Nov 2019 18:16:35 +0800 Adult XXX Date: 2019
Casts: Adriana Maya
Video: AVC, 1280x720 (16:9), 29.970 fps, 6 000 kb/s (0.217 bit/pixel)
Audio: AAC, 48.0 kHz, 2 ch, 96.0 kb/s, VBR (English)




[URL=https://dailyimages.xyz/844s.html][IMG]https://dailyimages.xyz/img/a/9/7/266399p.jpeg[/IMG][/URL] ]]>
MyDaughtersHotFriend - Kate Kennedy (25698) NEW 22 November 2019 http://glodls.to/torrent.php?id=10276960 http://glodls.to/torrent.php?id=10276960 Fri, 22 Nov 2019 18:16:19 +0800 Adult XXX [URL]http://imgtornado.com/img-5dd7d23c24ee3.html[/URL]

[URL]http://imgtornado.com/img-5dd7d4533da07.html[/URL]

Kate Kennedy is over a friend's house for a pool party. Shes a bit early and realizes her friend's dad is creepin on her. She threatens him with a good time or she'll tell his wife.
CATEGORIES AMERICAN, ASS SMACKING, BLONDE, BLOW JOB, BUBBLE BUTT, CAUCASIAN, DEEPTHROATING, FACIAL, NATURAL TITS, PETITE, SHAVED, YOUNG
]]>
Jessa Rose - Double The Cum 1080p http://glodls.to/torrent.php?id=10276959 http://glodls.to/torrent.php?id=10276959 Fri, 22 Nov 2019 18:15:50 +0800 Adult XXX Date: 2019
Casts: Jessa Rose
Video: AVC, 1920x1080 (16:9), 29.970 fps, 12.0 Mb/s (0.193 bit/pixel)
Audio: AAC, 48.0 kHz, 2 ch, 96.0 kb/s, VBR (English)




[URL=https://dailyimages.xyz/8451.html][IMG]https://dailyimages.xyz/img/f/5/6/266404p.jpeg[/IMG][/URL] ]]>
HardX - Savannah Bond (Hot Anal Blonde) NEW 22 November 2019 http://glodls.to/torrent.php?id=10276958 http://glodls.to/torrent.php?id=10276958 Fri, 22 Nov 2019 18:15:45 +0800 Adult XXX [URL]http://imgtornado.com/img-5dd7d23c218d0.html[/URL]

[URL]http://imgtornado.com/img-5dd7d450881ca.html[/URL]

Buxom blonde, Savannah Bond, with her massive ass and breasts brings you a sunlit ass focused tease. This is all anal at its finest! Including titty fucking, ass worshipping, face sitting, and facial and cum swallowing finish!
Categories: Hardcore, Facial, Fingering, Blonde, Squirt, Blowjob, Cum Swallowing, Anal, Tittyfuck, Deepthroat
]]>
Jessa Rose - Double The Cum 720p http://glodls.to/torrent.php?id=10276957 http://glodls.to/torrent.php?id=10276957 Fri, 22 Nov 2019 18:15:05 +0800 Adult XXX Date: 2019
Casts: Jessa Rose
Video: AVC, 1280x720 (16:9), 29.970 fps, 6 000 kb/s (0.217 bit/pixel)
Audio: AAC, 48.0 kHz, 2 ch, 96.0 kb/s, VBR (English)




[URL=https://dailyimages.xyz/8456.html][IMG]https://dailyimages.xyz/img/b/3/b/266409p.jpeg[/IMG][/URL] ]]>
Kiarra Kai - Kiarra Loves To Be A Flirt LIVE! 1080p http://glodls.to/torrent.php?id=10276956 http://glodls.to/torrent.php?id=10276956 Fri, 22 Nov 2019 18:14:20 +0800 Adult XXX Date: 2019
Casts: Kiarra Kai
Video: AVC, 1920x1080 (16:9), 30.000 fps, 10 000 kb/s (0.161 bit/pixel)
Audio: AAC, 44.1 kHz, 2 ch, 247 kb/s, VBR (English)




[URL=https://dailyimages.xyz/845b.html][IMG]https://dailyimages.xyz/img/8/c/4/266414p.jpeg[/IMG][/URL] ]]>
Kiarra Kai - Kiarra Loves To Be A Flirt LIVE! 720p http://glodls.to/torrent.php?id=10276953 http://glodls.to/torrent.php?id=10276953 Fri, 22 Nov 2019 18:13:35 +0800 Adult XXX Date: 2019
Casts: Kiarra Kai
Video: AVC, 1280x720 (16:9), 30.000 fps, 5 000 kb/s (0.181 bit/pixel)
Audio: AAC, 44.1 kHz, 2 ch, 192 kb/s, CBR (English)




[URL=https://dailyimages.xyz/845g.html][IMG]https://dailyimages.xyz/img/f/4/b/266419p.jpeg[/IMG][/URL] ]]>
Natalia Queen - You Got Me Pregnant 1080p http://glodls.to/torrent.php?id=10276950 http://glodls.to/torrent.php?id=10276950 Fri, 22 Nov 2019 18:12:48 +0800 Adult XXX Date: 2019
Casts: Natalia Queen
Video: AVC, 1920x1080 (16:9), 29.970 fps, 10.8 Mb/s (0.173 bit/pixel)
Audio: AAC, 44.1 kHz, 2 ch, 196 kb/s, CBR (English)




[URL=https://dailyimages.xyz/845l.html][IMG]https://dailyimages.xyz/img/b/1/b/266424p.jpeg[/IMG][/URL] ]]>
Natalia Queen - You Got Me Pregnant 720p http://glodls.to/torrent.php?id=10276945 http://glodls.to/torrent.php?id=10276945 Fri, 22 Nov 2019 18:12:03 +0800 Adult XXX Date: 2019
Casts: Natalia Queen
Video: AVC, 1280x720 (16:9), 29.970 fps, 4 795 kb/s (0.174 bit/pixel)
Audio: AAC, 44.1 kHz, 2 ch, 196 kb/s, CBR (English)




[URL=https://dailyimages.xyz/845q.html][IMG]https://dailyimages.xyz/img/b/6/2/266429p.jpeg[/IMG][/URL] ]]>
Allie Nicole & Vanessa Cage - Paying For Pleasure 720p http://glodls.to/torrent.php?id=10276941 http://glodls.to/torrent.php?id=10276941 Fri, 22 Nov 2019 18:11:18 +0800 Adult XXX Date: 2019
Casts: Allie Nicole & Vanessa Cage
Video: AVC, 1280x720 (16:9), 29.970 fps, 6 000 kb/s (0.217 bit/pixel)
Audio: AAC, 48.0 kHz, 2 ch, 96.0 kb/s, VBR (English)




[URL=https://dailyimages.xyz/845v.html][IMG]https://dailyimages.xyz/img/7/8/d/266434p.jpeg[/IMG][/URL] ]]>
Jill Kassidy, Aria Lee - Wires Crossed (22 11 2019) 2160p http://glodls.to/torrent.php?id=10276938 http://glodls.to/torrent.php?id=10276938 Fri, 22 Nov 2019 18:10:31 +0800 Adult XXX Casts: Jill Kassidy, Aria Lee
Video: (H264), 3840x2160 23,976fps, 15,0Mb/s;
Audio: AAC 48,0Hz stereo 128kbps;




[URL=https://dailyimages.xyz/8464.html][IMG]https://dailyimages.xyz/img/c/3/9/266439p.jpeg[/IMG][/URL] ]]>
Rambo Last Blood (2019) 720p HC HDRip x264 [Dual-Audio][Hindi (Cleaned) - English] ESubs - Downloadhub http://glodls.to/torrent.php?id=10276927 http://glodls.to/torrent.php?id=10276927 Fri, 22 Nov 2019 18:07:52 +0800 Movies
[url=https://imgshare.info/image/9ZBoj][img]https://imgshare.info/images/2019/09/20/8dabf5cde8287f9eff68c8321d6f2e66.jpg[/img][/url]

[img]https://extraimage.net/images/2017/05/10/0f98922bd359e7eaf5f6ad12fc86c758.png[/img]

[b]Format : AVC
Format/Info : Advanced Video Codec
Format profile : Main@L4.1
Format settings : CABAC / 4 Ref Frames
Format settings, CABAC : Yes
Format settings, RefFrames : 4 frames
Codec ID : V_MPEG4/ISO/AVC
Duration : 1 h 30 min
Nominal bit rate : 1 000 kb/s
Width : 1 280 pixels
Height : 534 pixels
Display aspect ratio : 2.40:1
Frame rate mode : Constant
Frame rate : 23.976 (24000/1001) FPS
Color space : YUV
Chroma subsampling : 4:2:0
Bit depth : 8 bits
Scan type : Progressive
Bits/(Pixel*Frame) : 0.061
Writing library : x264 core 142 r2479 dd79a61
Encoding settings : cabac=1 / ref=3 / deblock=1:0:0 / analyse=0x1:0x111 / me=hex / subme=7 / psy=1 / psy_rd=1.00:0.00 / mixed_ref=1 / me_range=16 / chroma_me=1 / trellis=1 / 8x8dct=0 / cqm=0 / deadzone=21,11 / fast_pskip=1 / chroma_qp_offset=-2 / threads=12 / lookahead_threads=2 / sliced_threads=0 / nr=0 / decimate=1 / interlaced=0 / bluray_compat=0 / constrained_intra=0 / bframes=3 / b_pyramid=2 / b_adapt=1 / b_bias=0 / direct=1 / weightb=1 / open_gop=0 / weightp=2 / keyint=240 / keyint_min=24 / scenecut=40 / intra_refresh=0 / rc_lookahead=40 / rc=2pass / mbtree=1 / bitrate=1000 / ratetol=1.0 / qcomp=0.60 / qpmin=0 / qpmax=69 / qpstep=4 / cplxblur=20.0 / qblur=0.5 / vbv_maxrate=50000 / vbv_bufsize=62500 / nal_hrd=none / filler=0 / ip_ratio=1.40 / aq=1:1.00
Default : Yes
Forced : No

Audio #1
ID : 2
Format : AAC
Format/Info : Advanced Audio Codec
Format profile : HE-AAC / LC
Format settings : Explicit
Codec ID : A_AAC-2
Duration : 1 h 30 min
Channel(s) : 2 channels
Channel positions : Front: L R
Sampling rate : 48.0 kHz / 24.0 kHz
Frame rate : 23.438 FPS (1024 SPF)
Compression mode : Lossy
Delay relative to video : -74 ms
Language : Hindi
Default : Yes
Forced : Yes

Audio #2
ID : 3
Format : AAC
Format/Info : Advanced Audio Codec
Format profile : HE-AAC / LC
Format settings : NBC
Codec ID : A_AAC-5
Duration : 1 h 30 min
Channel(s) : 2 channels
Channel positions : Front: L R
Sampling rate : 48.0 kHz / 24.0 kHz
Frame rate : 23.438 FPS (1024 SPF)
Compression mode : Lossy
Delay relative to video : -105 ms
Title : Stereo
Language : English
Default : No
Forced : No

Text
ID : 4
Format : UTF-8
Codec ID : S_TEXT/UTF8
Codec ID/Info : UTF-8 Plain Text
Default : Yes
Forced : No



[/b]

[url=https://extraimage.net/image/qO09][img]https://extraimage.net/images/2019/11/22/2074155882a08328331a9c719fb2271f.md.png[/img][/url]
[url=https://extraimage.net/image/qO0M][img]https://extraimage.net/images/2019/11/22/4cfc1b4960f0f110dc736c64b22eb476.md.png[/img][/url]

[/center] ]]>
320MMGH-231-magic mirror issue in Europe in 2019 for the first time, of Nampa production successful festival SP Diana25 http://glodls.to/torrent.php?id=10276846 http://glodls.to/torrent.php?id=10276846 Fri, 22 Nov 2019 17:57:25 +0800 Adult XXX Video codec: H.264 / AVC / MPEG-4 AVC / MPEG-4 part 10; Video: 1280x720, 16:9, 29.97fps, 8.29Mbps;
Audio codec: AAC (Advanced Audio Coding); Audio: 62Kbps, 2 channels (stereo);
https://discountxpic.xyz/img-5dd7b0bcda7b9.html
https://discountxpic.xyz/img-5dd7b0bce836b.html

[URL=https://discountxpic.xyz/img-5dd7b0bcda7b9.html][IMG]https://discountxpic.xyz/upload/small/2019/11/22/5dd7b0bcda783.jpeg[/IMG][/URL] ]]>
Shycinderella (Nov 08 2019) http://glodls.to/torrent.php?id=10276818 http://glodls.to/torrent.php?id=10276818 Fri, 22 Nov 2019 17:46:27 +0800 Adult XXX Date: 2019
Video: MPEG4 Video (H264) 1280x720 29.97fps 1500kbps
Audio: AAC 44100Hz stereo 194kbps

[URL=https://dailyimages.xyz/843j.html][IMG]https://dailyimages.xyz/img/2/2/c/266355p.jpeg[/IMG][/URL] ]]>
GotMylf - Jessa Rose (Double The Cum) NEW 22 November 2019 http://glodls.to/torrent.php?id=10276816 http://glodls.to/torrent.php?id=10276816 Fri, 22 Nov 2019 17:44:44 +0800 Adult XXX [URL]http://imgtornado.com/img-5dd7ca23ac9c5.html[/URL]

[URL]http://imgtornado.com/img-5dd7cc086b5de.html[/URL]

When MILF Jessa Rose pouts her pink lips, the whole world stops to watch. Today, she struts her stuff in a penthouse apartment. She sways back and forth, letting the incredible shape of her body do all the talking. Then, she pulls down her top and exposes her perfect titties, rubbing them as she gets hornier and hornier. Finally, our stud shows up and gives this girl what she has been waiting for. She grinds on his fat dick and savors the intense friction. Her body is so crazy hot that she makes the guy cum twice! Once on her delicious cooch and once on her hungry tongue. Double the cum, double the fun!
]]>
FilthyFamily - Rose Monroe, Julz Gotti (The Virgin Fucks Her Step Parents) NEW 22 November 2019 http://glodls.to/torrent.php?id=10276815 http://glodls.to/torrent.php?id=10276815 Fri, 22 Nov 2019 17:44:10 +0800 Adult XXX [URL]http://imgtornado.com/img-5dd7ca23a7c7b.html[/URL]

[URL]http://imgtornado.com/img-5dd7cc061a655.html[/URL]

When Julz Gotti went to college, she was told that sex was a sin, and she needed to wait until marriage to finally have her first sexual experience. Unfortunately, Julz gets really horny, and just wants to get some good dick. At her college graduation, she brings her boyfriend over her house and they start to hookup. Her parents walk in and kick her boyfriend out. They explain to her again that her first time needs to be with someone who loves her. Julz doesn’t understand how she’ll know for sure that she fucks someone who loves her. Her stepmom, Rose Monroe, has an idea. Julz could lose her virginity to them. They love her. Julz agrees and they all have an amazing threesome in multiple positions. Her stepdad couldn’t be happier, and Julz is happy that she finally got the sex that she’s needed her whole adult life.
]]>
BrownBunnies - Nyna Stax (Long Pool Noodle For Nyna Stax) NEW 22 November 2019 http://glodls.to/torrent.php?id=10276814 http://glodls.to/torrent.php?id=10276814 Fri, 22 Nov 2019 17:43:34 +0800 Adult XXX [URL]http://imgtornado.com/img-5dd7ca23a32bc.html[/URL]

[URL]http://imgtornado.com/img-5dd7cc03a8045.html[/URL]

Nyna Stax was showing off her beautiful ebony body at the pool when Jonathan Jordan came strolling by, a super long dick dangling between his legs. The obvious took it’s course. Nyna started to blow the dick. Then Jonathan started to fuck her in every conceivable position. His long dick spread her pussy lips with every stroke. In the end he shot such a giant load in her face that Nyna’s beautiful face was all hidden behind the jizz.
Tags: Amateur, Big Ass, Big Booty, Black, Black Girl, Blackonblack, Blowjob, Brunette, Cowgirl, Cumshot, Doggystyle, Ebony, Facial, Hardcore, Missionary, Riding, Vaginal
]]>
Audrey Hempburne (BTS) 1080p http://glodls.to/torrent.php?id=10276813 http://glodls.to/torrent.php?id=10276813 Fri, 22 Nov 2019 17:43:05 +0800 Adult XXX Date: 2019
Casts: Audrey Hempburne
Video: MPEG4 Video (H264) 1920x1080 30fps 6871kbps
Audio: AAC 48000Hz stereo 125kbps

[URL=https://dailyimages.xyz/843p.html][IMG]https://dailyimages.xyz/img/e/0/9/266361p.jpeg[/IMG][/URL] ]]>
Blacked - Joey White, Sami White (Early Birds) NEW 21 November 2019 http://glodls.to/torrent.php?id=10276812 http://glodls.to/torrent.php?id=10276812 Fri, 22 Nov 2019 17:42:58 +0800 Adult XXX [URL]http://imgtornado.com/img-5dd7ca239cb8f.html[/URL]

[URL]http://imgtornado.com/img-5dd7cc011d877.html[/URL]

The twins are popular in la. They often get invited to exclusive parties. But every once in a while, they get the dates mixed up.
Tags: Threesome, Teen, Gonzo, Hardcore, All Sex
]]>
Audrey Hempburne (BTS) http://glodls.to/torrent.php?id=10276811 http://glodls.to/torrent.php?id=10276811 Fri, 22 Nov 2019 17:42:19 +0800 Adult XXX Date: 2019
Casts: Audrey Hempburne
Video: MPEG4 Video (H264) 854x480 30fps 2656kbps
Audio: AAC 48000Hz stereo 125kbps

[URL=https://dailyimages.xyz/843n.html][IMG]https://dailyimages.xyz/img/0/c/5/266359p.jpeg[/IMG][/URL] ]]>
BadMilfs - Vanessa Cage, Allie Nicole (Paying For Pleasure) NEW 22 November 2019 http://glodls.to/torrent.php?id=10276810 http://glodls.to/torrent.php?id=10276810 Fri, 22 Nov 2019 17:42:16 +0800 Adult XXX [URL]http://imgtornado.com/img-5dd7ca2395cd4.html[/URL]

[URL]http://imgtornado.com/img-5dd7cbff43b62.html[/URL]

When investigative cutie Allie Nicole confronts our stud about fucking her stepmom, Vanessa Cage, she discovers a surprising truth. Her old man set it all up! He wants his wife to get her fill of fat cock, so our stud has been coming over to do his bidding. But now that Allie knows the secret, she wants in on the action. She chokes on the lucky guys dong as her pussy gets soaking wet. Later, Vanessa invites the horny young dicklover to join in on a steamy threesome with her and her boytoy. The MILF watches her stepdaughter suck cock and kisses her passionately as she gets her pussy pounded. This family affair keeps getting hotter!
Tags: 2 Girl BJ, 18 Year, Big Ass, Big Dick, Blonde, Blowjob, Booty, Cowgirl, Deepthroat, Doggystyle, High Heels, Milf, Missionary, Natural Tits, Pussy Lick, Schoolgirl, Straight, Teen, Tiny, Trimmed Pussy
]]>
[YoungLibertines] Kris The Foxx (21 11 2019) rq mp4 http://glodls.to/torrent.php?id=10276809 http://glodls.to/torrent.php?id=10276809 Fri, 22 Nov 2019 17:41:54 +0800 Adult XXX Audio: aac, 48000 Hz, 2 channels, s16, 128 kb/s (und)
Video: h264, yuv420p, 720x400, 1000 kb/s, 25,00 fps(r) (und)

http://hotspic.ru/img-5dd7ad4e995eb.html



]]>
Babes - Vicki Chase (I ve Wanted You For A Long Time) NEW 24 November 2019 http://glodls.to/torrent.php?id=10276808 http://glodls.to/torrent.php?id=10276808 Fri, 22 Nov 2019 17:41:35 +0800 Adult XXX [URL]http://imgtornado.com/img-5dd7ca238f7bb.html[/URL]

[URL]http://imgtornado.com/img-5dd7cbfc452b7.html[/URL]

Ricky Johnson and his girlfriend are in bed when gorgeous Vicki Chase asks to use their shower – her shower is broken and she can’t wait to lather up her perfect body. After her shower, amazing Vicki spots Ricky in bed and she gets an idea. His girlfriend has left for work and sexy Vicki has always wondered what it would be like to sleep with her roommate’s boyfriend! Ricky can’t say no to dark-haired Vicki and soon he is deep inside her incredible pussy.
Tags: Small Ass, Tattoo, Athletic, Latina, Black Hair, Hairy Pussy, Innie Pussy, Medium Tits, Natural Tits, Piercing, Muscular, Black, Black Hair, Short Hair, Big Dick
]]>
[SisLovesMe] Adriana Maya - The Horny Job Hunter (22 11 2019) rq mp4 http://glodls.to/torrent.php?id=10276807 http://glodls.to/torrent.php?id=10276807 Fri, 22 Nov 2019 17:39:32 +0800 Adult XXX Audio: aac, 48000 Hz, 2 channels, s16, 128 kb/s (und)
Video: h264, yuv420p, 720x400, 1002 kb/s, 29,97 fps(r) (und)

https://picbaron.com/5ap6m6ylzst4/s.jpeg.html



]]>
Isabella Nice - GangBang Creampie 242 (11 22 19) http://glodls.to/torrent.php?id=10276805 http://glodls.to/torrent.php?id=10276805 Fri, 22 Nov 2019 17:38:39 +0800 Adult XXX Video codec: H.264 / AVC / MPEG-4 AVC / MPEG-4 part 10; Video: 853x480, 16:9, 25fps, 1.2Mbps;
Audio codec: AAC (Advanced Audio Coding); Audio: 125Kbps, 2 channels (stereo);
https://discountxpic.xyz/img-5dd7aba2a3a13.html
https://discountxpic.xyz/img-5dd7aba2af3d9.html

[URL=https://discountxpic.xyz/img-5dd7aba2a3a13.html][IMG]https://discountxpic.xyz/upload/small/2019/11/22/5dd7aba2a39dc.jpeg[/IMG][/URL] ]]>