Download The Muffs - No Holiday (2019) [24bit Hi-Res] torrent - GloDLS
Torrent Details For "The Muffs - No Holiday (2019) [24bit Hi-Res]"

The Muffs - No Holiday (2019) [24bit Hi-Res]

To download this torrent, you need a BitTorrent client: Vuze or BTGuard
Download this torrent
Download using Magnet Link

Health:
Seeds: 0
Leechers: 0
Completed:
Last Checked: 09-11-2019 15:14:05

Uploader Reputation points : 838
External: Torrent






Write a Review for the Uploader:   5   Say Thanks with one good review:
Share on Facebook


Details
Name:The Muffs - No Holiday (2019) [24bit Hi-Res]
Description:
?

Quality-Lossless
Year-2019
Duration-00:44:42
File Size-546 MB
Genre-Rock
Cover Size-1400px

----------------------------------------------------------------------------------------------
Analyzed: No Holiday /  Artist: The Muffs
----------------------------------------------------------------------------------------------
DR Peak RMS Duration Title [codec]
----------------------------------------------------------------------------------------------
DR6 -0.10 dB -7.67 dB 0:38 01 - That's For Me [flac]
DR5 -0.10 dB -6.58 dB 1:33 02 - Down Down Down [flac]
DR6 -0.10 dB -7.87 dB 2:27 03 - No Holiday [flac]
DR5 -0.10 dB -6.63 dB 2:02 04 - Earth Below Me [flac]
DR6 -0.10 dB -6.84 dB 4:13 05 - A Lovely Day Boo Hoo [flac]
DR6 -0.10 dB -7.62 dB 3:58 06 - Late And Sorry [flac]
DR11 -0.10 dB -13.60 dB 1:17 07 - The Best [flac]
DR5 -0.10 dB -6.87 dB 1:31 08 - Pollyanna [flac]
DR5 -0.10 dB -5.72 dB 2:46 09 - Sick Of This Old World [flac]
DR6 -0.10 dB -6.59 dB 2:06 10 - To That Funny Place [flac]
DR6 -0.10 dB -7.61 dB 3:16 11 - You Talk And You Talk [flac]
DR6 -0.10 dB -6.68 dB 2:31 12 - Happier Just Being With You [flac]
DR7 -0.10 dB -7.93 dB 2:00 13 - Lucky Charm [flac]
DR5 -0.10 dB -6.10 dB 3:53 14 - On My Own [flac]
DR6 -0.10 dB -6.94 dB 2:27 15 - Too Awake [flac]
DR6 -0.10 dB -7.70 dB 2:29 16 - Insane [flac]
DR6 -0.10 dB -7.46 dB 3:18 17 - The Kids Have Gone Away [flac]
DR8 -2.10 dB -12.78 dB 2:10 18 - Sky [flac]
----------------------------------------------------------------------------------------------
Number of files:    18
Official DR value:  DR6

Sampling rate: 44100 Hz
Average bitrate: 1616kbs
Bits per sample: 24 bit
YouTube Video:
Category:FLAC
Language:Aucune/N/D
Total Size:521.03 MB
Info Hash:68BF8CCA339FF59445435B7CB48798D299168105
Added By:was95was Verified UploaderMusic Lover
Date Added:2019-11-09 23:14:01
Torrent Status:Torrent Verified


Ratings:Not Yet Rated (Log in to rate it)


Tracker:
udp://tracker.piratepublic.com:1337/announce

This Torrent also has backup trackers
URLSeedersLeechersCompleted
udp://tracker.piratepublic.com:1337/announce000
udp://tracker.pirateparty.gr:6969/announce000
udp://tracker.coppersurfer.tk:6969/announce000
udp://tracker.leechers-paradise.org:6969/announce000
udp://9.rarbg.com:2710/announce000
http://p4p.arenabg.com:1337/announce000
http://explodie.org:6969/announce000
udp://tracker.opentrackr.org:1337/announce000
udp://exodus.desync.com:6969/announce000
udp://tracker.leechers-paradise.org:6969/announce000
udp://tracker.zer0day.to:1337/announce000
udp://open.demonii.si:1337/announce000
udp://exodus.desync.com:6969/announce000
udp://tracker.iamhansen.xyz:2000/announce000


File List: 





Comments
No comments still posted