Download Transformers War for Cybertron S01 Complete 720p NF WEB-DL Dual Audio [ Hindi + English] ⭐1 3 GB⭐ 2CH ESub x264 - Shadow (BonsaiHD) torrent - GloDLS
Torrent Details For "Transformers War for Cybertron S01 Complete 720p NF WEB-DL Dual Audio [ Hindi + Engl..."

Transformers War for Cybertron S01 Complete 720p NF WEB-DL Dual Audio [ Hindi + Engl...

To download this torrent, you need a BitTorrent client: Vuze or BTGuard
Download this torrent
Download using Magnet Link

Health:
Seeds: 1,308
Leechers: 180
Completed: 14,331 
Last Checked: 01-08-2020 23:03:20

Uploader Reputation points : 964
External: Torrent






Write a Review for the Uploader:   5   Say Thanks with one good review:
Share on Facebook
TV Info

Transformers: War for Cybertron Trilogy

In the midst of ongoing war on Cybertron, forces of good and evil clash as they search for the source of their power: the Allspark. This may not be the life they imagined, but it's a life worth fighting for.



Details
Name:Transformers War for Cybertron S01 Complete 720p NF WEB-DL Dual Audio [ Hindi + Engl...
Description:
If You Need Best Quality in Low Size. Then This Is For You

Please Don't Stop Your Tourrent after download Complete. For seeding



Movie name :

Transformers: War for Cybertron S01 720p WEB-DL Dual Audio [ Hindi + English] ⭐1.3 GB⭐ 2CH ESub x264 - Shadow (BonsaiHD)


Quote:

Storyline : Animated series set in the world of battling Autobots and Decepticons.

Release date : 30 July 2020 (India)

File size : 1.3 GB

Encoded by :- ⭐BonsaiHD⭐

Source :-⭐BonsaiHD⭐











General
Unique ID                                : 127890264737799687712766863780599032016 (0x6036C4E02906055DC8DC787D0637E8D0)
Complete name                            : Transformers.War.For.Cybertron.Trilogy..mkv
Format                                   : Matroska
Format version                           : Version 4
File size                                : 211 MiB
Duration                                 : 24 min 54 s
Overall bit rate mode                    : Variable
Overall bit rate                         : 1 187 kb/s
Encoded date                             : UTC 2020-07-30 07:07:00 / UTC 2020-07-16 18:12:05
Writing application                      : mkvmerge v37.0.0 ('Leave It') 64-bit
Writing library                          : libebml v1.3.9 + libmatroska v1.5.2 / Lavf58.1.0

Video
ID                                       : 1
Format                                   : AVC
Format/Info                              : Advanced Video Codec
Format profile                           : [email protected]
Format settings                          : CABAC / 4 Ref Frames
Format settings, CABAC                   : Yes
Format settings, Reference frames        : 4 frames
Codec ID                                 : V_MPEG4/ISO/AVC
Duration                                 : 24 min 54 s
Bit rate mode                            : Variable
Bit rate                                 : 907 kb/s
Maximum bit rate                         : 14.0 Mb/s
Width                                    : 1 280 pixels
Height                                   : 720 pixels
Display aspect ratio                     : 16:9
Frame rate mode                          : Constant
Frame rate                               : 24.000 FPS
Color space                              : YUV
Chroma subsampling                       : 4:2:0
Bit depth                                : 8 bits
Scan type                                : Progressive
Bits/(Pixel*Frame)                       : 0.041
Stream size                              : 162 MiB (76%)
Writing library                          : x264 core 148 r2721 6d200cf
Encoding settings                        : cabac=1 / ref=4 / deblock=1:0:0 / analyse=0x3:0x111 / me=umh / subme=10 / psy=1 / psy_rd=1.00:0.00 / mixed_ref=1 / me_range=120 / chroma_me=1 / trellis=2 / 8x8dct=1 / cqm=0 / deadzone=21,11 / fast_pskip=1 / chroma_qp_offset=-2 / threads=6 / lookahead_threads=1 / sliced_threads=0 / nr=0 / decimate=1 / interlaced=0 / bluray_compat=0 / stitchable=1 / constrained_intra=0 / bframes=16 / b_pyramid=2 / b_adapt=2 / b_bias=0 / direct=3 / weightb=1 / open_gop=0 / weightp=2 / keyint=240 / keyint_min=121 / scenecut=0 / intra_refresh=0 / rc_lookahead=240 / rc=crf / mbtree=1 / crf=36.0 / qcomp=0.50 / qpmin=6 / qpmax=51 / qpstep=4 / vbv_maxrate=14000 / vbv_bufsize=14000 / crf_max=0.0 / nal_hrd=vbr / filler=0 / ip_ratio=1.40 / aq=1:0.80
Default                                  : Yes
Forced                                   : No
Duration_Source                          : General_Duration

Audio #1
ID                                       : 2
Format                                   : E-AC-3
Format/Info                              : Enhanced AC-3
Commercial name                          : Dolby Digital Plus
Codec ID                                 : A_EAC3
Duration                                 : 24 min 54 s
Bit rate mode                            : Constant
Bit rate                                 : 128 kb/s
Channel(s)                               : 2 channels
Channel layout                           : L R
Sampling rate                            : 48.0 kHz
Frame rate                               : 31.250 FPS (1536 SPF)
Compression mode                         : Lossy
Stream size                              : 22.8 MiB (11%)
Language                                 : Hindi
Service kind                             : Complete Main
Default                                  : Yes
Forced                                   : No
Encoded date                             : UTC 2020-07-16 18:12:04
Duration_Source                          : General_Duration

Audio #2
ID                                       : 3
Format                                   : E-AC-3
Format/Info                              : Enhanced AC-3
Commercial name                          : Dolby Digital Plus
Codec ID                                 : A_EAC3
Duration                                 : 24 min 54 s
Bit rate mode                            : Constant
Bit rate                                 : 128 kb/s
Channel(s)                               : 2 channels
Channel layout                           : L R
Sampling rate                            : 48.0 kHz
Frame rate                               : 31.250 FPS (1536 SPF)
Compression mode                         : Lossy
Stream size                              : 22.8 MiB (11%)
Language                                 : English
Service kind                             : Complete Main
Default                                  : No
Forced                                   : No
Encoded date                             : UTC 2020-07-16 18:12:05
Duration_Source                          : General_Duration

Text #1
ID                                       : 4
Format                                   : UTF-8
Codec ID                                 : S_TEXT/UTF8
Codec ID/Info                            : UTF-8 Plain Text
Title                                    : English_Forced
Language                                 : English
Default                                  : Yes
Forced                                   : Yes

Text #2
ID                                       : 5
Format                                   : UTF-8
Codec ID                                 : S_TEXT/UTF8
Codec ID/Info                            : UTF-8 Plain Text
Title                                    : English_Forced
Language                                 : English
Default                                  : No
Forced                                   : Yes

Text #3
ID                                       : 6
Format                                   : UTF-8
Codec ID                                 : S_TEXT/UTF8
Codec ID/Info                            : UTF-8 Plain Text
Title                                    : English_Full
Language                                 : English
Default                                  : No
Forced                                   : No

Text #4
ID                                       : 7
Format                                   : UTF-8
Codec ID                                 : S_TEXT/UTF8
Codec ID/Info                            : UTF-8 Plain Text
Title                                    : English_Full
Language                                 : English
Default                                  : No
Forced                                   : No


YouTube Video:
Category:TV
Language:Dubs/Dual Audio
Total Size:1.32 GB
Info Hash:CDFF62595B0F377AE494533A5514F0BD3945E80B
Added By:trueHD Verified Uploader
Date Added:2020-07-30 15:33:38
Torrent Status:Torrent Verified


Ratings:Not Yet Rated (Log in to rate it)


Tracker:
udp://tracker.coppersurfer.tk:6969/announce

This Torrent also has backup trackers
URLSeedersLeechersCompleted
udp://tracker.coppersurfer.tk:6969/announce000
udp://tracker.leechers-paradise.org:6969/announce111151,767
udp://tracker.cyberia.is:6969/announce9491,358
http://tracker.nyap2p.com:8080/announce279481,583
udp://p4p.arenabg.com:1337/announce9712933
udp://explodie.org:6969/announce3150
udp://tracker.opentrackr.org:1337/announce105161,359
udp://tracker.tiny-vps.com:6969/announce110131,253
udp://exodus.desync.com:6969/announce8310859
udp://tracker.torrent.eu.org:451/announce9181,170
udp://tracker.moeking.me:6969/announce8510621
udp://ipv4.tracker.harry.lu:80/announce3780
udp://open.stealth.si:80/announce102141,302
udp://9.rarbg.to:2710/announce7291,942
udp://opentor.org:2710/announce113184


File List: 





Comments
No comments still posted