Recommended SD TV
NOVA.S48E16.Edible.Insects.480p.x264-ZMNT
Supergirl.S06E16.480p.x264-ZMNT
Stargirl.S02E11.480p.x264-ZMNT
Nancy.Drew.S03E02.480p.x264-ZMNT
Roswell.New.Mexico.S03E13.480p.x264-ZMNT
Magnum.P.I.S04E02.480p.x264-ZMNT

Recommended HD Movies
Venom: Let There Be Carnage (2021) [WEBRip] [720p] [YTS.MX].
No Time To Die 2021 720p AMZN WEBRip x264 DD5.1 MP4 [A1Rip].
Reminiscence 2021 720p BluRay x264 DD5.1 MP4 [A1Rip].
The Assassin Next Door (2009) 720p BluRay x264 DD5.1 MP4 [A1Rip]
No Escape 2015 720p BluRay H264 [AAC] MP4 [A1Rip]
Dune 2021 720p WEBRip x264 SDR DDP5.1 MP4 [A1Rip]

Recommended Music
MP3 NEW RELEASES 2021 WEEK 40 - [GloDLS]
MP3 NEW RELEASES 2021 WEEK 39 - [GloDLS]
MP3 NEW RELEASES 2021 WEEK 38 - [GloDLS]
MP3 NEW RELEASES 2021 WEEK 37 - [GloDLS]
MP3 NEW RELEASES 2021 WEEK 36 - [GloDLS]
MP3 NEW RELEASES 2021 WEEK 35 - [GloDLS]
MP3 NEW RELEASES 2021 WEEK 34 - [GloDLS]
MP3 NEW RELEASES 2021 WEEK 33 - [GloDLS]

Recommended HD TV
Roswell.New.Mexico.S03E13.720p.x265-ZMNT
Magnum.P.I.S04E02.720p.x265-ZMNT
Nancy.Drew.S03E01.720p.x265-ZMNT
The.Outpost.S04E13.720p.x265-ZMNT
Foundation.S01E04.720p.x265-ZMNT
Young.Sheldon.S05E01.720p.x265-ZMNT

HOT Foreign Movies
Rurouni.Kenshin.The.Beginning.Part.2.2021.WEBRip.h264-Dual.YG⭐
Kalki (2019)  HDRip x264 HiNdi Dubb AAC
Sandeep Aur Pinky Faraar (2021) Hindi WebHD 720p AAC 2.0
Sultan (2021) HDRip x264 HiNdi Dubb AAC - 1GB
Hum Bhi Akele Tum Bhi Akele (2019) WebRip 720p Hindi AAC 2.0
Wild Dog (2021) HDRip x264 HiNdi Dubb AAC - 1.17GB

Torrent Details For "Squad (2021) Hindi UNTOUCHED 1080p Zee5 WEB-DL x26..."

Squad (2021) Hindi UNTOUCHED 1080p Zee5 WEB-DL x26...

Download this torrent
Last Checked: 08-12-2021 11:04:38
Tracked: External



IMDB - Squad
Squad Link

Category

Language

Date Added

Total Size

Completed

Added By

Info Hash

Seeders

Leechers

Views

https://www.imdb.com/title/tt3100046

Foreign Movies > HD

Hindi

12-11-2021 11:50:06

2.05 GB

17,940

Suryadipta Trusted Uploader


3c8a48493bd28ddb22573f7960d9c64c3d62bcb0

306

43

77

5.7
Votes 852
Last Updated 09-12-2021 10:42:57

Details
Name:Squad (2021) Hindi UNTOUCHED 1080p Zee5 WEB-DL x26...
Description:
Visit Our Site
  themoviesboss.com

firetorrents.org


Encoded by                               : Harley Quinn



Movie name :

Squad (2021) Hindi UNTOUCHED 1080p Zee5 WEB-DL x264 AAC2.0 ESub 2.GB [TheMoviesBoss]

General
Format : Matroska
Format version : Version 4
File size : 2.05 GiB
Duration : 2 h 4 min
Overall bit rate mode : Variable
Overall bit rate : 2 356 kb/s
Encoded date : UTC 2021-11-11 20:01:34
Writing application : mkvmerge v60.0.0 ('Are We Copies?') 64-bit
Writing library : libebml v1.4.2 + libmatroska v1.6.4

Video
ID : 1
Format : AVC
Format/Info : Advanced Video Codec
Format profile : [email protected]
Format settings : CABAC / 4 Ref Frames
Format settings, CABAC : Yes
Format settings, Reference frames : 4 frames
Codec ID : V_MPEG4/ISO/AVC
Duration : 2 h 4 min
Bit rate mode : Variable
Bit rate : 2 290 kb/s
Maximum bit rate : 4 300 kb/s
Width : 1 920 pixels
Height : 1 080 pixels
Display aspect ratio : 16:9
Frame rate mode : Constant
Frame rate : 25.000 FPS
Standard : PAL
Color space : YUV
Chroma subsampling : 4:2:0
Bit depth : 8 bits
Scan type : Progressive
Bits/(Pixel*Frame) : 0.044
Stream size : 1.99 GiB (97%)
Default : Yes
Forced : No
Color range : Limited
Color primaries : BT.709
Transfer characteristics : BT.709
Matrix coefficients : BT.709

Audio
ID : 2
Format : AAC LC
Format/Info : Advanced Audio Codec Low Complexity
Codec ID : A_AAC-2
Duration : 2 h 4 min
Bit rate : 64.0 kb/s
Channel(s) : 2 channels
Channel layout : L R
Sampling rate : 48.0 kHz
Frame rate : 46.875 FPS (1024 SPF)
Compression mode : Lossy
Stream size : 56.9 MiB (3%)
Language : Hindi
Default : Yes
Forced : No

Text
ID : 3
Format : UTF-8
Codec ID : S_TEXT/UTF8
Codec ID/Info : UTF-8 Plain Text
Duration : 2 h 1 min
Bit rate : 47 b/s
Count of elements : 1349
Stream size : 41.7 KiB (0%)
Language : English
Default : Yes
Forced : No

                                       











Ratings:Not Yet Rated (Log in to rate it)


Tracker:
udp://tracker.nyaa.uk:6969/announce

This Torrent also has backup trackers
URLSeedersLeechersCompleted
udp://tracker.nyaa.uk:6969/announce111
udp://tracker.coppersurfer.tk:6969/announce111
udp://tracker.opentrackr.org:1337/announce53106,275
udp://9.rarbg.com:2970/announce4535,272
udp://p4p.arenabg.com:1337/announce35640
udp://tracker.pirateparty.gr:6969/announce111
udp://exodus.desync.com:6969/announce31471
udp://tracker.torrent.eu.org:451/announce332158
udp://tracker.tiny-vps.com:6969/announce224704
http://pow7.com:80/announce000
udp://151.80.120.114:2710/announce111
udp://9.rarbg.to:2790/announce4535,272
udp://open.stealth.si:80/announce376143
udp://tracker.leechers-paradise.org:6969/announce111
http://t.nyaatracker.com:80/announce000


File List: 


Comments

No comments still posted